Prinzessin Lillifee | Sobrenatural HDTV | It Happened in Hollywood (1937)

Скачать через торрент [MULT] Дом злодеев. Мышиный дом Mickeys House of Villains бесплатно русская версия torrent активатор

Статистика раздачи
Размер:  786 MB   |    Зарегистрирован:  3 года 1 месяц   |    .torrent скачан:  48 раз   |   
Раздают:  1  
   
загрузка...
 
Автор Сообщение

Galfimbul

avatar Galfimbul


Дом злодеев. Мышиный дом / Mickey's House of Villains

Год выпуска: 2001
Страна: США
Жанр: мультфильм, комедия, семейный
Продолжительность: 01:08:03
Перевод №1: Профессиональный (дублированный)
Перевод №2: Профессиональный (многоголосый, закадровый)
Режиссеры: Джэми Митчелл / Jamie Mitchell, Тони Крэйг / Tony Craig, Роберт Ганнавей / Robert Gannaway, Майк Мун / Mike Moon, Рик Шнайдер / Rick Schneider
Роли озвучивали: Уэйн Оллвэйн / Wayne Allwine (Mickey Mouse), Тони Ансельмо / Tony Anselmo (Donald Duck / Huey / Dewey / Louie), Джефф Беннетт / Jeff Bennett (Salesman (segment 'Mickey's Mechanical House')), Сьюзан Блэйксли / Susan Blakeslee (Cruella De Vil), Кори Бертон / Corey Burton (Captain Hook / Chernabog / 'How to' рассказчик / Chief O'Hara), Пэт Кэрролл / Pat Carroll (Ursula) и другие .
Роли дублировали: Максим Сергеев, Константин Петров, Снежина Копрова, Елена Павловская, Валерий Никитенко, Валерий Кухарешин, Алексей Гурьев и другие .
Описание: Банда негодяев во главе с Джафаром пытается захватить домик Микки Мауса и превратить его в дом злодеев. Но верные друзья Микки — Дональд Дак, Гуффи, Плуто — как всегда рядом и готовы сражаться за торжество справедливости. Остановить и победить злодеев им помогают взаимовыручка, смекалка, чувство юмора и добрые сердца…
Доп. информация:

Качество: WEB-DLRip / [url=...5025348]WEB-DL 1080p[/url]
Формат: MP4
Видео кодек: H.264
Аудио кодек: AAC
Видео: 960x536 AR:16/9 1 352 kbps, 23.976 fps
Аудио №1: 2 ch, 48 kHz, 128 kbps [Dub]
Аудио №2: 2 ch, 48 kHz, 128 kbps [MVO]
...last pass...

x264.exe: --pass 2 --bitrate 1352 --preset medium --profile high --level 4.1 --ref 8 --aq-strength 0.7 --deblock -3:-3 --merange 24 --no-chroma-me --bframes 16 --direct auto --b-adapt 2 --trellis 0 --no-fast-pskip --no-dct-decimate --qpmin 16 --vbv-maxrate 50000 --vbv-bufsize 62500 --subme 9 --me umh --rc-lookahead 60 --min-keyint 25 --keyint 240 --colorprim bt709 --transfer bt709 --colormatrix bt709 --sar 1:1 --stats "E:\Мышиный дом - дом злодеев [2001].log" --output "E:\Мышиный дом - дом злодеев [2001].mp4" "J:\Temp\0196.avs"

avs [info]: 960x536p 1:1 @ 2500000/104271 fps (cfr)
x264 [info]: using SAR=1/1
x264 [info]: using cpu capabilities: MMX2 SSE2Fast SSSE3 SSE4.2 LZCNT
x264 [info]: profile High, level 4.1

x264 [info]: frame I:728 Avg QP:17.40 size: 45901
x264 [info]: frame P:30339 Avg QP:19.13 size: 12863
x264 [info]: frame B:66834 Avg QP:21.62 size: 3987
x264 [info]: consecutive B-frames: 6.8% 8.9% 9.7% 57.8% 8.5% 3.9% 0.8% 1.0% 0.4% 0.6% 0.3% 0.4% 0.2% 0.2% 0.2% 0.2% 0.2%
x264 [info]: mb I I16..4: 25.1% 45.6% 29.3%
x264 [info]: mb P I16..4: 3.3% 4.4% 3.3% P16..4: 36.4% 10.2% 12.0% 0.0% 0.0% skip:30.4%
x264 [info]: mb B I16..4: 0.2% 0.4% 0.7% B16..8: 24.4% 4.6% 2.0% direct: 2.0% skip:65.7% L0:43.0% L1:52.4% BI: 4.6%
x264 [info]: 8x8 transform intra:39.9% inter:47.2%
x264 [info]: direct mvs spatial:96.4% temporal:3.6%
x264 [info]: coded y,uvDC,uvAC intra: 61.2% 67.0% 43.1% inter: 9.5% 12.9% 4.3%
x264 [info]: i16 v,h,dc,p: 53% 21% 9% 17%
x264 [info]: i8 v,h,dc,ddl,ddr,vr,hd,vl,hu: 11% 10% 9% 10% 13% 11% 13% 10% 13%
x264 [info]: i4 v,h,dc,ddl,ddr,vr,hd,vl,hu: 13% 10% 8% 10% 13% 11% 13% 10% 13%
x264 [info]: i8c dc,h,v,p: 37% 30% 22% 12%
x264 [info]: Weighted P-Frames: Y:3.4% UV:1.3%
x264 [info]: ref P L0: 56.8% 8.3% 14.6% 5.6% 4.4% 3.9% 3.5% 2.3% 0.6% 0.0%
x264 [info]: ref B L0: 75.9% 10.7% 5.8% 2.9% 2.2% 1.6% 1.0%
x264 [info]: ref B L1: 94.2% 5.8%
x264 [info]: kb/s:1352.08

x264 [total]: encoded 97901 frames, 17.87 fps, 1352.08 kb/s
[pre]l
Complete name : E:\Torrents\Mickey's House Of Villains.2001.WEB-DLRip.x264.960x.rip by Frost O.S.mp4
Format : MPEG-4
Format profile : Base Media
Codec ID : isom
File size : 786 MiB
Duration : 1h 8mn
Overall bit rate mode : Variable
Overall bit rate : 1 614 Kbps
Movie name : Mickey's House Of Villains 2001 WEB-DLRip x264 960x rip by Frost O S
Performer : Тони Крэйг / Tony Craig, Робертс Ганнавей / Roberts Gannaway
Genre : Animation
ContentType : Short Film
Recorded date : 15 РЅРѕСЏР±СЂСЏ 2001
Encoded date : UTC 2015-06-18 11:12:59
Tagged date : UTC 2015-06-18 11:15:14
Writing application : MkvToMp4 version: 0.224 (x64)
Cover : Yes
Comment : rip by Frost O.S
LongDescription : Банда негодяев во главе с Джафаром пытается захватить домик Микки Мауса и превратить его в дом злодеев. Но верные друзья Микки — Дональд Дак, Гуффи, Плуто — как всегда рядом и готовы сражаться за торжество справедливости. Остановить и победить злодеев им помогают взаимовыручка, смекалка, чувство юмора и добрые сердца…
ContentRating : ru-movie|0+|100|

Video
ID : 1
Format : AVC
Format/Info : Advanced Video Codec
Format profile : [email protected]
Format settings, CABAC : Yes
Format settings, ReFrames : 8 frames
Codec ID : avc1
Codec ID/Info : Advanced Video Coding
Duration : 1h 8mn
Bit rate : 1 352 Kbps
Maximum bit rate : 13.7 Mbps
Width : 960 pixels
Height : 536 pixels
Display aspect ratio : 16:9
Frame rate mode : Constant
Frame rate : 23.976 fps
Color space : YUV
Chroma subsampling : 4:2:0
Bit depth : 8 bits
Scan type : Progressive
Bits/(Pixel*Frame) : 0.110
Stream size : 658 MiB (84%)
Writing library : x264 core 130 r2273 b3065e6
Encoding settings : cabac=1 / ref=8 / deblock=1:-3:-3 / analyse=0x3:0x113 / me=umh / subme=9 / psy=1 / psy_rd=1.00:0.00 / mixed_ref=1 / me_range=24 / chroma_me=0 / trellis=0 / 8x8dct=1 / cqm=0 / deadzone=21,11 / fast_pskip=0 / chroma_qp_offset=-2 / threads=3 / lookahead_threads=1 / sliced_threads=0 / nr=0 / decimate=0 / interlaced=0 / bluray_compat=0 / constrained_intra=0 / bframes=16 / b_pyramid=2 / b_adapt=2 / b_bias=0 / direct=3 / weightb=1 / open_gop=0 / weightp=2 / keyint=240 / keyint_min=25 / scenecut=40 / intra_refresh=0 / rc_lookahead=60 / rc=2pass / mbtree=1 / bitrate=1352 / ratetol=1.0 / qcomp=0.60 / qpmin=16 / qpmax=69 / qpstep=4 / cplxblur=20.0 / qblur=0.5 / vbv_maxrate=50000 / vbv_bufsize=62500 / nal_hrd=none / ip_ratio=1.40 / aq=1:0.70
Language : English
Encoded date : UTC 2015-06-18 11:12:59
Tagged date : UTC 2015-06-18 11:13:52
Color primaries : BT.709
Transfer characteristics : BT.709
Matrix coefficients : BT.709

Audio #1
ID : 2
Format : AAC
Format/Info : Advanced Audio Codec
Format profile : LC
Codec ID : 40
Duration : 1h 8mn
Bit rate mode : Variable
Bit rate : 128 Kbps
Maximum bit rate : 132 Kbps
Channel(s) : 2 channels
Channel positions : Front: L R
Sampling rate : 48.0 KHz
Compression mode : Lossy
Stream size : 62.3 MiB (8%)
Title : [Dub]
Language : Russian
Encoded date : UTC 2015-06-18 11:13:29
Tagged date : UTC 2015-06-18 11:13:52

Audio #2
ID : 3
Format : AAC
Format/Info : Advanced Audio Codec
Format profile : LC
Codec ID : 40
Duration : 1h 8mn
Bit rate mode : Variable
Bit rate : 128 Kbps
Maximum bit rate : 132 Kbps
Channel(s) : 2 channels
Channel positions : Front: L R
Sampling rate : 48.0 KHz
Compression mode : Lossy
Stream size : 62.3 MiB (8%)
Title : [MVO]
Language : Russian
Encoded date : UTC 2015-06-18 11:13:45
Tagged date : UTC 2015-06-18 11:13:52


Трекер:  [ 18-Июн-2015 15:00 ]

  

Скачать .torrent

Размер .torrent файла 16 KB


Размер: 786 MB
Хэш (hash) релиза: 1f0e7eaa31ee2e7e508f4a8b1af256ea56e34449

Еще никто не оставлял запись к записи скачать торрент [MULT] Дом злодеев. Мышиный дом Mickeys House of Villains . Будь первым!

!Обратная связь