Clint Howard | The Perfect Puppy | Genevieve Gaunt

Скачать через торрент [MULT] Волшебное рождество у Микки: Запертые снегом в мышином доме Mickeys Magical Christmas: Snowed in at the House of Mouse бесплатно русская версия torrent активатор

Статистика раздачи
Размер:  513 MB   |    Зарегистрирован:  3 года   |    .torrent скачан:  42 раза   |   
Раздают:  1  
   
загрузка...
 
Автор Сообщение

Galfimbul

avatar Galfimbul


Волшебное рождество у Микки: Запертые снегом в мышином доме / Mickey's Magical Christmas: Snowed in at the House of Mouse«It's snowed in at the House of Mouse!»

Год выпуска: 2001
Страна: США
Жанр: мультфильм, комедия, приключения, семейный
Продолжительность: 01:02:24
Перевод №1: Профессиональный (дублированный)
Перевод №2: Авторский (одноголосый, закадровый) - Живов
Режиссеры: Тони Крэйг / Tony Craig, Роберт Ганнавей / Roberts Gannaway, Рик Шнайдер / Rick Schneider
Роли озвучивали: Карлос Аласраки / Carlos Alazraqui (Panchito), Уэйн Оллвэйн / Wayne Allwine (Mickey Mouse), Тони Ансельмо / Tony Anselmo (Donald Duck / Huey / Dewey / Louie), Джефф Беннетт / Jeff Bennett (Mr. Jollyland), Джоди Бенсон / Jodi Benson (Ariel), Робби Бенсон / Robby Benson (Beast), Кори Бертон / Corey Burton (Ludwig Von Drake / Mad Hatter / Grumpy / Gus / Captain Hook)) и другие .
Роли дублировали: Максим Сергеев, Константин Петров, Ксения Бржезовская, Олег Куликович, Андрей Тенетко и другие .
Описание: [i]Когда из-за снежной бури все вынуждены остаться дома, Микки и гости его Мышиного Дома, включая Пуха, Поросенка, Бэлль, Белоснежку, Ариэль и многих других старых и новых друзей, из всех сил пытаются с помощью печенья и горячего шоколада развеселить Дональда и исправить его испорченное рождественское настроение.
[b]Доп. информация
:

Качество: WEB-DLRip / [url=...5021097]WEB-DL 720p[/url]
Формат: MP4
Видео кодек: H.264
Аудио кодек: AAC
Видео: 640x480 AR:4/3 890 kbps, 23.976 fps
Аудио №1: 2 ch, 48 kHz, 128 kbps [Dub]
Аудио №2: 2 ch, 48 kHz, 128 kbps [VO] Живов
...last pass...

x264.exe: --pass 2 --bitrate 890 --preset medium --profile high --level 4.1 --ref 8 --aq-strength 0.7 --deblock -3:-3 --merange 24 --no-chroma-me --bframes 16 --direct auto --b-adapt 2 --trellis 0 --no-fast-pskip --no-dct-decimate --qpmin 16 --vbv-maxrate 50000 --vbv-bufsize 62500 --subme 9 --me umh --rc-lookahead 70 --min-keyint 25 --keyint 240 --colorprim bt709 --transfer bt709 --colormatrix bt709 --sar 1:1 --stats "E:\Mickey's Magical Christmas Snowed in at the House of Mouse.2001.WEB-DL 720p.log" --output "E:\Mickey's Magical Christmas Snowed in at the House of Mouse.2001.WEB-DL 720p.mp4" "J:\Temp\0198.avs"

avs [info]: 640x480p 1:1 @ 2500000/104271 fps (cfr)
x264 [info]: using SAR=1/1
x264 [info]: using cpu capabilities: MMX2 SSE2Fast SSSE3 SSE4.2 LZCNT
x264 [info]: profile High, level 4.1

x264 [info]: frame I:731 Avg QP:19.20 size: 41040
x264 [info]: frame P:24528 Avg QP:21.42 size: 9476
x264 [info]: frame B:64509 Avg QP:24.88 size: 2390
x264 [info]: consecutive B-frames: 4.2% 6.2% 9.6% 53.5% 11.9% 5.7% 1.6% 1.7% 0.6% 1.0% 0.4% 0.5% 0.3% 0.6% 0.2% 0.3% 1.4%
x264 [info]: mb I I16..4: 17.2% 44.8% 38.0%
x264 [info]: mb P I16..4: 4.4% 3.7% 4.0% P16..4: 38.1% 12.4% 12.2% 0.0% 0.0% skip:25.3%
x264 [info]: mb B I16..4: 0.3% 0.3% 0.6% B16..8: 26.5% 4.9% 2.3% direct: 2.4% skip:62.7% L0:44.4% L1:50.4% BI: 5.2%
x264 [info]: 8x8 transform intra:31.7% inter:40.1%
x264 [info]: direct mvs spatial:94.0% temporal:6.0%
x264 [info]: coded y,uvDC,uvAC intra: 53.5% 67.6% 47.2% inter: 9.9% 17.4% 7.0%
x264 [info]: i16 v,h,dc,p: 52% 24% 11% 13%
x264 [info]: i8 v,h,dc,ddl,ddr,vr,hd,vl,hu: 10% 12% 13% 9% 11% 10% 12% 9% 13%
x264 [info]: i4 v,h,dc,ddl,ddr,vr,hd,vl,hu: 13% 11% 13% 9% 11% 10% 11% 9% 13%
x264 [info]: i8c dc,h,v,p: 41% 29% 20% 10%
x264 [info]: Weighted P-Frames: Y:10.7% UV:6.7%
x264 [info]: ref P L0: 55.8% 11.4% 14.0% 5.4% 4.1% 3.5% 3.1% 2.0% 0.7% 0.0%
x264 [info]: ref B L0: 73.7% 11.8% 6.4% 3.0% 2.4% 1.7% 1.0%
x264 [info]: ref B L1: 92.2% 7.8%
x264 [info]: kb/s:890.21
encoded 89768 frames, 25.04 fps, 890.21 kb/s
[pre]General
Complete name : E:\Torrents\Mickey's Magical Christmas Snowed in at the House of Mouse.2001.WEB-DLRip.x264.800x.rip by Frost O.S.mp4
Format : MPEG-4
Format profile : Base Media
Codec ID : isom
File size : 513 MiB
Duration : 1h 2mn
Overall bit rate mode : Variable
Overall bit rate : 1 150 Kbps
Movie name : Mickey's Magical Christmas Snowed in at the House of Mouse 2001 WEB-DLRip x264 800x rip by Frost O S
Performer : Тони Крэйг / Tony Craig, Роберт Ганнавей / Roberts Gannaway, Рик Шнайдер / Rick Schneider
Genre : Animation
ContentType : Short Film
Recorded date : 6 РЅРѕСЏР±СЂСЏ 2001
Encoded date : UTC 2015-06-18 11:31:08
Tagged date : UTC 2015-06-18 11:32:06
Writing application : MkvToMp4 version: 0.224 (x64)
Cover : Yes
Comment : rip by Frost O.S
LongDescription : Когда из-за снежной бури все вынуждены остаться дома, Микки и гости его Мышиного Дома, включая Пуха, Поросенка, Бэлль, Белоснежку, Ариэль и многих других старых и новых друзей, из всех сил пытаются с помощью печенья и горячего шоколада развеселить Дональда и исправить его испорченное рождественское настроение. Веселье начинается, когда Минни предлагает посмотреть любимые праздничные фильмы, и все предаются приятным воспоминаниям, которые волшебным образом создают рождественскую атмосферу вокруг — даже сварливый Дональд начинает веселиться и, в конце концов, становится настоящей звездой вечера.
ContentRating : ru-movie|0+|100|

Video
ID : 1
Format : AVC
Format/Info : Advanced Video Codec
Format profile : [email protected]
Format settings, CABAC : Yes
Format settings, ReFrames : 8 frames
Codec ID : avc1
Codec ID/Info : Advanced Video Coding
Duration : 1h 2mn
Bit rate : 890 Kbps
Maximum bit rate : 5 234 Kbps
Width : 640 pixels
Height : 480 pixels
Display aspect ratio : 4:3
Frame rate mode : Constant
Frame rate : 23.976 fps
Color space : YUV
Chroma subsampling : 4:2:0
Bit depth : 8 bits
Scan type : Progressive
Bits/(Pixel*Frame) : 0.121
Stream size : 397 MiB (77%)
Writing library : x264 core 130 r2273 b3065e6
Encoding settings : cabac=1 / ref=8 / deblock=1:-3:-3 / analyse=0x3:0x113 / me=umh / subme=9 / psy=1 / psy_rd=1.00:0.00 / mixed_ref=1 / me_range=24 / chroma_me=0 / trellis=0 / 8x8dct=1 / cqm=0 / deadzone=21,11 / fast_pskip=0 / chroma_qp_offset=-2 / threads=3 / lookahead_threads=1 / sliced_threads=0 / nr=0 / decimate=0 / interlaced=0 / bluray_compat=0 / constrained_intra=0 / bframes=16 / b_pyramid=2 / b_adapt=2 / b_bias=0 / direct=3 / weightb=1 / open_gop=0 / weightp=2 / keyint=240 / keyint_min=25 / scenecut=40 / intra_refresh=0 / rc_lookahead=70 / rc=2pass / mbtree=1 / bitrate=890 / ratetol=1.0 / qcomp=0.60 / qpmin=16 / qpmax=69 / qpstep=4 / cplxblur=20.0 / qblur=0.5 / vbv_maxrate=50000 / vbv_bufsize=62500 / nal_hrd=none / ip_ratio=1.40 / aq=1:0.70
Language : English
Encoded date : UTC 2015-06-18 11:31:08
Tagged date : UTC 2015-06-18 11:31:30
Color primaries : BT.709
Transfer characteristics : BT.709
Matrix coefficients : BT.709

Audio #1
ID : 2
Format : AAC
Format/Info : Advanced Audio Codec
Format profile : LC
Codec ID : 40
Duration : 1h 1mn
Bit rate mode : Variable
Bit rate : 128 Kbps
Maximum bit rate : 134 Kbps
Channel(s) : 2 channels
Channel positions : Front: L R
Sampling rate : 48.0 KHz
Compression mode : Lossy
Stream size : 56.5 MiB (11%)
Title : [Dub]
Language : Russian
Encoded date : UTC 2015-06-18 11:31:25
Tagged date : UTC 2015-06-18 11:31:30

Audio #2
ID : 3
Format : AAC
Format/Info : Advanced Audio Codec
Format profile : LC
Codec ID : 40
Duration : 1h 1mn
Bit rate mode : Variable
Bit rate : 128 Kbps
Maximum bit rate : 133 Kbps
Channel(s) : 2 channels
Channel positions : Front: L R
Sampling rate : 48.0 KHz
Compression mode : Lossy
Stream size : 56.5 MiB (11%)
Title : [VO] Zhuvov
Language : Russian
Encoded date : UTC 2015-06-18 11:31:27
Tagged date : UTC 2015-06-18 11:31:30


Трекер:  [ 18-Июн-2015 14:30 ]

  

Скачать .torrent

Размер .torrent файла 10 KB


Размер: 513 MB
Хэш (hash) релиза: 00702ac017129ebed60dc8127c7afb36becdc116

Еще никто не оставлял запись к записи скачать торрент [MULT] Волшебное рождество у Микки: Запертые снегом в мышином доме Mickeys Magical Christmas: Snowed in at the House of Mouse . Будь первым!

!Обратная связь