Brianne Howey | Episode 03 (Sub) | Gods Quiz S04

Скачать через торрент музыку Территория отверженных: Долорес, Я Zone of the Enders: Dolores, I - 2001 г., FLAC бесплатно без регистрации torrent

Статистика раздачи
Размер:  273 MB   |    Зарегистрирован:  3 года 1 месяц   |    .torrent скачан:  30 раз   |   
Раздают:  1  
   
загрузка...
 
Автор Сообщение

Galfimbul

avatar Galfimbul


Территория отверженных: Долорес, Я / Zone of the Enders: Dolores, I

Год выпуска: 2001 г.
Страна: Япония
Аудио кодек: FLAC (*.flac)
Тип рипа: tracks+.cue
Битрейт аудио: lossless
Продолжительность: 00:45:36
Наличие сканов в содержимом раздачи: нет

Треклист:
01 - Zone of the Enders TV Size
02 - Outset drive
03 - Shukumei no Senjou
04 - Bougyaku to Inbou
05 - Hiai Naru Tougi
06 - Yokuatsu Sareshi wa
07 - Kanashimim no Sentaku
08 - Kyouaku Naru Tekikage
09 - Utsukushii Saigo
10 - Dolores no Komoriuta
11 - Where are you
12 - Karei Naru Hikou
13 - Kazokuai
14 - Itorashii Dolores
15 - Wild de Ikou
16 - Ukiuki Suru James
17 - Sorrow
18 - Ring on the World TV Size
Exact Audio Copy V1.0 beta 3 from 29. August 2011

EAC extraction logfile from 26. February 2012, 16:49

七瀬 光 / Z.O.E Dolores,i ORIGINAL SCORE VOL.1

Used drive : HP DVD Writer 1260r Adapter: 0 ID: 0

Read mode : SecureUtilize accurate stream : YesDefeat audio cache : YesMake use of C2 pointers : No

Read offset correction : 48Overread into Lead-In and Lead-Out : NoFill up missing offset samples with silence : YesDelete leading and trailing silent blocks : NoNull samples used in CRC calculations : YesUsed interface : Native Win32 interface for Win NT & 2000

Used output format : User Defined EncoderSelected bitrate : 320 kBit/sQuality : HighAdd ID3 tag : YesCommand line compressor : D:\Program Files\TAK_2.2.0\Applications\Takc.exeAdditional command line options : -e -p2 %source%

TOC of the extracted CD

Track | Start | Length | Start sector | End sector --------------------------------------------------------- 1 | 0:00.00 | 1:35.50 | 0 | 7174 2 | 1:35.50 | 4:17.67 | 7175 | 26516 3 | 5:53.42 | 3:12.73 | 26517 | 40989 4 | 9:06.40 | 2:54.10 | 40990 | 54049 5 | 12:00.50 | 3:41.50 | 54050 | 70674 6 | 15:42.25 | 3:18.00 | 70675 | 85524 7 | 19:00.25 | 2:15.52 | 85525 | 95701 8 | 21:16.02 | 1:57.13 | 95702 | 104489 9 | 23:13.15 | 1:50.55 | 104490 | 112794 10 | 25:03.70 | 1:26.50 | 112795 | 119294 11 | 26:30.45 | 1:57.10 | 119295 | 128079 12 | 28:27.55 | 3:10.20 | 128080 | 142349 13 | 31:38.00 | 2:55.00 | 142350 | 155474 14 | 34:33.00 | 2:33.07 | 155475 | 166956 15 | 37:06.07 | 3:16.63 | 166957 | 181719 16 | 40:22.70 | 1:32.37 | 181720 | 188656 17 | 41:55.32 | 2:07.55 | 188657 | 198236 18 | 44:03.12 | 1:32.65 | 198237 | 205201

Range status and errors

Selected range

Filename D:\Ripped Discs by hjknight\20120225\LACA-5047\LACA-5047.wav

Peak level 99.4 % Extraction speed 3.9 X Range quality 99.9 % Copy CRC 0D0B314D Copy OK

No errors occurred

AccurateRip summary

Track 1 not present in databaseTrack 2 not present in databaseTrack 3 not present in databaseTrack 4 not present in databaseTrack 5 not present in databaseTrack 6 not present in databaseTrack 7 not present in databaseTrack 8 not present in databaseTrack 9 not present in databaseTrack 10 not present in databaseTrack 11 not present in databaseTrack 12 not present in databaseTrack 13 not present in databaseTrack 14 not present in databaseTrack 15 not present in databaseTrack 16 not present in databaseTrack 17 not present in databaseTrack 18 not present in database

None of the tracks are present in the AccurateRip database

End of status report

---- CUETools DB Plugin V2.1.3

[CTDB TOCID: DS_G7lAZqsnfgCMB76MMfwQWQvs-] disk not present in database, Submit result: database access error: 请求被中止: 请求已被取消。

==== Log checksum D91D152B7B2C427304C8B88508F1A481E72E5B3705FE7B954A23B309AEE8DA90 ====


Трекер:  [ 16-Июн-2015 18:30 ]

  

Скачать .torrent

Размер .torrent файла 12 KB


Размер: 273 MB
Хэш (hash) релиза: 87b496eac9c0d99c988ad5d7cb7bc80606c3fba0

Еще никто не оставлял запись к записи скачать торрент Территория отверженных: Долорес, Я Zone of the Enders: Dolores, I - 2001 г., FLAC . Будь первым!

!Обратная связь