Chicago Hope | GISDATA SRL | Imagine Dragons - Shots.

Скачать через торрент [VIDEO] Далласский клуб покупателей Dallas Buyers Club бесплатно русская версия torrent активатор

Статистика раздачи
Размер:  859 MB   |    Зарегистрирован:  3 года 1 месяц   |    .torrent скачан:  25 раз   |   
Раздают:  1  
   
загрузка...
 
Автор Сообщение

Galfimbul

avatar Galfimbul


Далласский клуб покупателей / Dallas Buyers Club
Год выпуска: 2013

Страна:
Жанр: драма, биография, история
Продолжительность: 01:56:57
Перевод: Профессиональный (дублированный) R5
Cубтитры: нет
Режиссер: Жан-Марк Валле / Jean-Marc Vallée
В ролях: Мэттью МакКонахи, Джаред Лето, Дженнифер Гарнер, Дэнис О’Хэйр, Стив Зан, Майкл О’Нил, Даллас Робертс, Гриффин Данн, Кевин О. Ранкин, Донна ДюПлантье, Стеффи Гроут, Джанин Хилл Реальная история Рона Вудруфа, техасского электрика, у которого в 1985 году обнаружили СПИД. Врачи отвели ему всего 30 дней, но он не пожелал смириться со смертным приговором и сумел продлить свою жизнь, принимая нетрадиционные лекарства, а затем наладил подпольный бизнес по продаже их другим больным.Кинопоиск | IMDB
[b]Качество: HDRip
Исходник: Dallas.Buyers.Club.2013.1080p.BluRay.HDCLUB-EbP
Формат: MP4
Видео: AVC, 640x266 (2,40:1), 896 kbps, 23,976fps
Аудио: Русский [Дубляж], AAC, 48kHz, (2 ch), 128,0 kbps[/b]
ОбщееПолное имя : Dallas.Buyers.Club.2013.640x.mp4Формат : MPEG-4Профиль формата : Base MediaИдентификатор кодека : isomРазмер файла : 859 МбайтПродолжительность : 1 ч. 56 м.Режим общего битрейта : ПеременныйОбщий поток : 1027 Кбит/секДата кодирования : UTC 2015-06-09 07:10:31Дата пометки : UTC 2015-06-09 07:10:31

ВидеоИдентификатор : 1Формат : AVCФормат/Информация : Advanced Video CodecПрофиль формата : [email protected]Параметр CABAC формата : ДаПараметр ReFrames формата : 9 кадровИдентификатор кодека : avc1Идентификатор кодека/Информация : Advanced Video CodingПродолжительность : 1 ч. 56 м.Битрейт : 896 Кбит/секМаксимальный битрейт : 6408 Кбит/секШирина : 640 пикселейВысота : 266 пикселейСоотношение сторон : 2,40:1Режим частоты кадров : ПостоянныйЧастота кадров : 23,976 кадра/секЦветовое пространство : YUVСубдискретизация насыщенности : 4:2:0Битовая глубина : 8 битТип развёртки : ПрогрессивнаяБит/(Пиксели*Кадры) : 0.220Размер потока : 749 Мбайт (87%)Заголовок : [email protected]-DEV-rev248-g39d5978-masterБиблиотека кодирования : x264 core 146 r2538 121396cДата кодирования : UTC 2015-06-09 07:10:31Дата пометки : UTC 2015-06-09 07:12:59

АудиоИдентификатор : 2Формат : AACФормат/Информация : Advanced Audio CodecПрофиль формата : LCИдентификатор кодека : 40Продолжительность : 1 ч. 56 м.Вид битрейта : ПеременныйБитрейт : 128 Кбит/секМаксимальный битрейт : 202 Кбит/секКаналы : 2 каналаРасположение каналов : Front: L RЧастота : 48,0 КГцМетод сжатия : С потерямиРазмер потока : 107 Мбайт (12%)Дата кодирования : UTC 2015-06-09 01:26:39Дата пометки : UTC 2015-06-09 07:12:59


Трекер:  [ 16-Июн-2015 15:30 ]

  

Скачать .torrent

Размер .torrent файла 17 KB


Размер: 859 MB
Хэш (hash) релиза: 85cc027fc816cbedb5252d0fa263330b31b1f68b

Еще никто не оставлял запись к записи скачать торрент [VIDEO] Далласский клуб покупателей Dallas Buyers Club . Будь первым!

!Обратная связь