Sweet X Trouble | Anderson Silva Like Water 2012 DVDSCR Matrix-new | Сначала 2 (сезон второй) /...

Скачать через торрент [SERIAL] Власть в ночном городе Power бесплатно русская версия torrent активатор

Статистика раздачи
Размер:  265 MB   |    Зарегистрирован:  3 года 1 месяц   |    .torrent скачан:  30 раз   |   
Раздают:  1  
   
загрузка...
 
Автор Сообщение

Galfimbul

avatar Galfimbul


Власть в ночном городе / Power
Год выпуска: 2015

Страна:
Жанр: драма, криминал
Продолжительность: ~58 мин.
Перевод: Профессиональный (многоголосый закадровый) Amedia
Cубтитры: нет
Режиссер: Джон Дэвид Коулз / John David Coles, Энтони Хемингуэй / Anthony Hemingway
В ролях: Луис Рамос, Адам Хасс, Люси Уолтерс, Винисиус Мачадо, Лесли Лопез, Кэтрин Нардуччи, Шэйн Джонсон, Дж.Р. Рамирез, Омари Хардвик, Лела Лорен Богатый владелец ночного клуба в Нью-Йорке хочет выбиться в городскую элиту и ведет двойную жизнь, торгуя наркотиками.Кинопоиск | IMDB
[b]Качество: WEB-DLRip
Исходник: Power.S02.1080p.WEB-DL.Rus.Eng.HDCLUB
Формат: MP4
Видео: AVC, 480x270 (16:9), 512 kbps, 25,000fps
Аудио: Русский [Многоголосый], AAC, 48kHz, (2 ch), 128,0 kbps[/b]
01: Consequences

ОбщееПолное имя : Power.S02E01.mp4Формат : MPEG-4Профиль формата : Base MediaИдентификатор кодека : isomРазмер файла : 265 МбайтПродолжительность : 57 м.Режим общего битрейта : ПеременныйОбщий поток : 644 Кбит/секДата кодирования : UTC 2015-06-10 18:32:27Дата пометки : UTC 2015-06-10 18:32:27

ВидеоИдентификатор : 1Формат : AVCФормат/Информация : Advanced Video CodecПрофиль формата : [email protected]Параметр CABAC формата : ДаПараметр ReFrames формата : 9 кадровИдентификатор кодека : avc1Идентификатор кодека/Информация : Advanced Video CodingПродолжительность : 57 м.Битрейт : 512 Кбит/секМаксимальный битрейт : 2691 Кбит/секШирина : 480 пикселейВысота : 270 пикселейСоотношение сторон : 16:9Режим частоты кадров : ПостоянныйЧастота кадров : 25,000 кадров/секЦветовое пространство : YUVСубдискретизация насыщенности : 4:2:0Битовая глубина : 8 битТип развёртки : ПрогрессивнаяБит/(Пиксели*Кадры) : 0.158Размер потока : 211 Мбайт (80%)Заголовок : [email protected]-DEV-rev248-g39d5978-masterБиблиотека кодирования : x264 core 146 r2538 121396cДата кодирования : UTC 2015-06-10 18:32:27Дата пометки : UTC 2015-06-10 18:32:52

АудиоИдентификатор : 2Формат : AACФормат/Информация : Advanced Audio CodecПрофиль формата : LCИдентификатор кодека : 40Продолжительность : 57 м.Вид битрейта : ПеременныйБитрейт : 128 Кбит/секМаксимальный битрейт : 191 Кбит/секКаналы : 2 каналаРасположение каналов : Front: L RЧастота : 48,0 КГцМетод сжатия : С потерямиРазмер потока : 52,8 Мбайт (20%)Дата кодирования : UTC 2015-06-10 16:23:15Дата пометки : UTC 2015-06-10 18:32:52


Трекер:  [ 16-Июн-2015 15:30 ]

  

Скачать .torrent

Размер .torrent файла 11 KB


Размер: 265 MB
Хэш (hash) релиза: 9c22e3627d2e5acc4742098c6fab52b20d58ad51

Еще никто не оставлял запись к записи скачать торрент [SERIAL] Власть в ночном городе Power . Будь первым!

!Обратная связь