El Rebelde Oculto (2017) [BrRip 720p] [L... | Download APK | Télécharger Part 2

Скачать через торрент [VIDEO] Форсаж: Антология The Fast And The Furious: Antology бесплатно русская версия torrent активатор

Статистика раздачи
Размер:  3.98 GB   |    Зарегистрирован:  3 года 1 месяц   |    .torrent скачан:  43 раза   |   
Раздают:  1  
   
загрузка...
 
Автор Сообщение

Galfimbul

avatar Galfimbul


Форсаж / The Fast and the Furious
Год выпуска: 2001
Страна: США, Германия / Mediastream Film GmbH & Co. Productions KG, Original Film, Universal Pictures
Жанр: боевик, триллер, драма, криминал
Продолжительность: 01:46:50
Перевод: Профессиональный (полное дублирование)
Оригинальная дорожка: Нет
Cубтитры: Нет
Режиссер: Роб Коэн / Rob Cohen
В ролях: Пол Уокер (Brian O'Conner), Вин Дизель (Dominic Toretto), Мишель Родригес (Letty), Джордана Брюстер (Mia Toretto), Рик Юн (Johnny Tran), Чэд Линдберг (Jesse), Джонни Стронг (Leon), Мэтт Шульце (Vince), Тед Левайн (Sgt. Tanner), Том Бэрри (Agent Bilkins), Джа Рул (Edwin), Вито Руджинис (Harry), Стэнтон Рутледж (Muse), Ноэль Гульеми (Hector)

Описание: Его зовут Брайан, и он — фанатик турбин и нитроускорителей. Его цель — быть принятым в автобанду легендарного Доминика Торетто, чемпиона опасных и незаконных уличных гонок. Но это лишь часть правды… Брайан также полицейский, имеющий задание войти в доверие к Торетто, подозреваемому в причастности к дерзким грабежам трейлеров, совершенным прямо «с колес». Но чем больше доверяет нахальному новичку харизматичный Доминик, тем больше проникается герой идеалами «ангелов дорог». И тем меньше ему хочется выполнять свою миссию. И вот, наступает момент, когда Брайану придется выбирать между дружбой и долгом. И выбирать на скорости в 200 километров в час…

Качество: HDRip
Формат: MP4
Видео: AVC, 640x272 (2:35:1), 700 kbps, 23.976 fps
Аудио 1: Русский, AAC, 2 ch, 48 kHz, 128 kbps [Dub]
x264 [info]: frame I:2676 Avg QP:19.36 size: 17764
x264 [info]: frame P:76583 Avg QP:21.94 size: 5523
x264 [info]: frame B:74450 Avg QP:24.23 size: 1216

x264 [total]: encoded 153709 frames, 171.76 fps, 700.04 kb/s
General
Complete name : Форсаж (The Fast and the Furious) HDRip 2001.mp4
Format : MPEG-4
Format profile : Base Media
Codec ID : isom
File size : 636 MiB
Duration : 1h 46mn
Overall bit rate mode : Variable
Overall bit rate : 832 Kbps
Encoded date : UTC 2015-06-12 13:45:42
Tagged date : UTC 2015-06-12 13:45:42

Video
ID : 1
Format : AVC
Format/Info : Advanced Video Codec
Format profile : [email protected]
Format settings, CABAC : Yes
Format settings, ReFrames : 4 frames
Codec ID : avc1
Codec ID/Info : Advanced Video Coding
Duration : 1h 46mn
Bit rate : 700 Kbps
Maximum bit rate : 4 224 Kbps
Width : 640 pixels
Height : 272 pixels
Display aspect ratio : 2.35:1
Frame rate mode : Constant
Frame rate : 23.976 fps
Color space : YUV
Chroma subsampling : 4:2:0
Bit depth : 8 bits
Scan type : Progressive
Bits/(Pixel*Frame) : 0.168
Stream size : 535 MiB (84%)
Title : [email protected]-DEV-rev248-g39d5978-master
Writing library : x264 core 146 r2538 121396c
Encoding settings : cabac=1 / ref=3 / deblock=1:0:0 / analyse=0x3:0x113 / me=hex / subme=7 / psy=1 / psy_rd=1.00:0.00 / mixed_ref=1 / me_range=16 / chroma_me=1 / trellis=1 / 8x8dct=1 / cqm=0 / deadzone=21,11 / fast_pskip=1 / chroma_qp_offset=-2 / threads=6 / lookahead_threads=1 / sliced_threads=0 / nr=0 / decimate=1 / interlaced=0 / bluray_compat=0 / constrained_intra=0 / bframes=3 / b_pyramid=2 / b_adapt=1 / b_bias=0 / direct=1 / weightb=1 / open_gop=0 / weightp=2 / keyint=250 / keyint_min=23 / scenecut=40 / intra_refresh=0 / rc_lookahead=40 / rc=2pass / mbtree=1 / bitrate=700 / ratetol=1.0 / qcomp=0.60 / qpmin=0 / qpmax=69 / qpstep=4 / cplxblur=20.0 / qblur=0.5 / ip_ratio=1.40 / aq=1:1.00
Encoded date : UTC 2015-06-12 13:45:42
Tagged date : UTC 2015-06-12 13:45:52

Audio
ID : 2
Format : AAC
Format/Info : Advanced Audio Codec
Format profile : LC
Codec ID : 40
Duration : 1h 46mn
Bit rate mode : Variable
Bit rate : 128 Kbps
Maximum bit rate : 180 Kbps
Channel(s) : 2 channels
Channel positions : Front: L R
Sampling rate : 48.0 KHz
Compression mode : Lossy
Stream size : 97.8 MiB (15%)
Encoded date : UTC 2015-06-12 13:43:32
Tagged date : UTC 2015-06-12 13:45:52
Двойной форсаж / 2 Fast 2 Furious
Год выпуска: 2003
Страна: США, Германия / Mikona Productions GmbH & Co. KG, Original Film, Universal Pictures
Жанр: боевик, триллер, драма, криминал
Продолжительность: 01:47:35
Перевод: Профессиональный (полное дублирование)
Оригинальная дорожка: Нет
Cубтитры: Нет
Режиссер: Джон Синглтон / John Singleton
В ролях: Пол Уокер (Brian O'Conner), Тайриз Гибсон (Roman Pearce), Ева Мендес (Monica Fuentes), Коул Хаузер (Carter Verone), Лудакрис (Tej), Том Бэрри (Agent Bilkins), Джеймс Римар (Agent Markham), Девон Аоки (Suki), Амори Ноласко (Orange Julius), Майкл Или (Slap Jack), Джин Онг (Jimmy), Эдвард Финлэй (Agent Dunn), Марк Бун Джуниор (Detective Whitworth)

Описание: Бывший полицейский Брайан О`Коннер вместе с напарником Романом Пирсом собираются перевезти крупную сумму «грязных» денег известного мафиози Картера Верона в качестве его подручных. Но на самом деле эта работа является только прикрытием для Брайана, который вместе с тайным агентом Моникой Фуэнтес должны уличить изворотливого преступника…

Качество: HDRip
Формат: MP4
Видео: AVC, 640x272 (2:35:1), 700 kbps, 23.976 fps
Аудио 1: Русский, AAC, 2 ch, 48 kHz, 128 kbps [Dub]
x264 [info]: mb I I16..4: 7.8% 66.2% 26.0%
x264 [info]: mb P I16..4: 2.0% 8.2% 1.8% P16..4: 41.0% 19.6% 10.9% 0.0% 0.0% skip:16.4%
x264 [info]: mb B I16..4: 0.1% 0.3% 0.1% B16..8: 36.7% 5.4% 1.3% direct: 1.9% skip:54.2% L0:33.9% L1:53.9% BI:12.2%

x264 [total]: encoded 154785 frames, 165.58 fps, 699.89 kb/s
General
Complete name : Двойной форсаж (2 Fast 2 Furious) 2003 HDRip.mp4
Format : MPEG-4
Format profile : Base Media
Codec ID : isom
File size : 640 MiB
Duration : 1h 47mn
Overall bit rate mode : Variable
Overall bit rate : 832 Kbps
Encoded date : UTC 2015-06-12 13:19:48
Tagged date : UTC 2015-06-12 13:19:48

Video
ID : 1
Format : AVC
Format/Info : Advanced Video Codec
Format profile : [email protected]
Format settings, CABAC : Yes
Format settings, ReFrames : 4 frames
Codec ID : avc1
Codec ID/Info : Advanced Video Coding
Duration : 1h 47mn
Bit rate : 700 Kbps
Maximum bit rate : 3 131 Kbps
Width : 640 pixels
Height : 272 pixels
Display aspect ratio : 2.35:1
Frame rate mode : Constant
Frame rate : 23.976 fps
Color space : YUV
Chroma subsampling : 4:2:0
Bit depth : 8 bits
Scan type : Progressive
Bits/(Pixel*Frame) : 0.168
Stream size : 539 MiB (84%)
Title : [email protected]-DEV-rev248-g39d5978-master
Writing library : x264 core 146 r2538 121396c
Encoding settings : cabac=1 / ref=3 / deblock=1:0:0 / analyse=0x3:0x113 / me=hex / subme=7 / psy=1 / psy_rd=1.00:0.00 / mixed_ref=1 / me_range=16 / chroma_me=1 / trellis=1 / 8x8dct=1 / cqm=0 / deadzone=21,11 / fast_pskip=1 / chroma_qp_offset=-2 / threads=6 / lookahead_threads=1 / sliced_threads=0 / nr=0 / decimate=1 / interlaced=0 / bluray_compat=0 / constrained_intra=0 / bframes=3 / b_pyramid=2 / b_adapt=1 / b_bias=0 / direct=1 / weightb=1 / open_gop=0 / weightp=2 / keyint=250 / keyint_min=23 / scenecut=40 / intra_refresh=0 / rc_lookahead=40 / rc=2pass / mbtree=1 / bitrate=700 / ratetol=1.0 / qcomp=0.60 / qpmin=0 / qpmax=69 / qpstep=4 / cplxblur=20.0 / qblur=0.5 / ip_ratio=1.40 / aq=1:1.00
Encoded date : UTC 2015-06-12 13:19:48
Tagged date : UTC 2015-06-12 13:19:59

Audio
ID : 2
Format : AAC
Format/Info : Advanced Audio Codec
Format profile : LC
Codec ID : 40
Duration : 1h 47mn
Bit rate mode : Variable
Bit rate : 128 Kbps
Maximum bit rate : 155 Kbps
Channel(s) : 2 channels
Channel positions : Front: L R
Sampling rate : 48.0 KHz
Compression mode : Lossy
Stream size : 98.5 MiB (15%)
Encoded date : UTC 2015-06-12 13:17:28
Tagged date : UTC 2015-06-12 13:19:59
Тройной форсаж: Токийский дрифт / The Fast and the Furious: Tokyo Drift
Год выпуска: 2006
Страна: США, Германия / Universal Pictures, Original Film
Жанр: боевик, триллер, драма, криминал
Продолжительность: 01:44:14
Перевод: Профессиональный (полное дублирование)
Оригинальная дорожка: Нет
Cубтитры: Нет
Режиссер: Джастин Лин / Justin Lin
В ролях: Лукас Блэк (Sean Boswell), Бау Вау (Twinkie), Санг Кенг (Han), Брайан Ти (D.K.), Натали Келли (Neela), Брайан Гудман (Major Boswell), Джейсон Дж. Тобин (Earl), Кейко Китагава (Reiko), Закари Ти Брайан (Clay), Никки Гриффин (Cindy - Clay's Girlfriend), Дэмиен Марцетт (High School Security Guard), Трула М. Маркус (American Math Teacher)

Описание: Шон Босуэлл — одинокий парень, который хочет казаться профи уличных гонок. Он бесшабашно гоняется по улицам города, пытаясь убежать от жизненных невзгод и наживая себе врагов среди местных властей. Когда Шону грозит тюрьма, его от греха подальше отсылают к отцу — профессиональному военному, который служит на военной базе в Японии. В незнакомой стране, живущей по своим законам, Шон чувствует себя еще большим изгоем. Однако вскоре его американский приятель Твинки знакомит его с миром подпольного дрифт-рейсинга. Раньше Шон просто тупо гонялся по улицам, а здесь перед ним открылся целый мир своеобразного искусства из металла и резины, дороги которого оказались невообразимо круты на поворотах…

Качество: HDRip
Формат: MP4
Видео: AVC, 640x272 (2:35:1), 700 kbps, 23.976 fps
Аудио 1: Русский, AAC, 2 ch, 48 kHz, 128 kbps [Dub]
x264 [info]: frame I:2939 Avg QP:20.65 size: 17242
x264 [info]: frame P:75956 Avg QP:23.28 size: 5483
x264 [info]: frame B:71053 Avg QP:25.87 size: 1127

x264 [total]: encoded 149948 frames, 169.37 fps, 700.01 kb/s
General
Complete name : Тройной форсаж Токийский дрифт (The Fast and the Furious Tokyo Drift) 2006 HDRip.mp4
Format : MPEG-4
Format profile : Base Media
Codec ID : isom
File size : 620 MiB
Duration : 1h 44mn
Overall bit rate mode : Variable
Overall bit rate : 832 Kbps
Encoded date : UTC 2015-06-12 15:52:55
Tagged date : UTC 2015-06-12 15:52:55

Video
ID : 1
Format : AVC
Format/Info : Advanced Video Codec
Format profile : [email protected]
Format settings, CABAC : Yes
Format settings, ReFrames : 4 frames
Codec ID : avc1
Codec ID/Info : Advanced Video Coding
Duration : 1h 44mn
Bit rate : 700 Kbps
Maximum bit rate : 3 893 Kbps
Width : 640 pixels
Height : 272 pixels
Display aspect ratio : 2.35:1
Frame rate mode : Constant
Frame rate : 23.976 fps
Color space : YUV
Chroma subsampling : 4:2:0
Bit depth : 8 bits
Scan type : Progressive
Bits/(Pixel*Frame) : 0.168
Stream size : 522 MiB (84%)
Title : [email protected]-DEV-rev248-g39d5978-master
Writing library : x264 core 146 r2538 121396c
Encoding settings : cabac=1 / ref=3 / deblock=1:0:0 / analyse=0x3:0x113 / me=hex / subme=7 / psy=1 / psy_rd=1.00:0.00 / mixed_ref=1 / me_range=16 / chroma_me=1 / trellis=1 / 8x8dct=1 / cqm=0 / deadzone=21,11 / fast_pskip=1 / chroma_qp_offset=-2 / threads=6 / lookahead_threads=1 / sliced_threads=0 / nr=0 / decimate=1 / interlaced=0 / bluray_compat=0 / constrained_intra=0 / bframes=3 / b_pyramid=2 / b_adapt=1 / b_bias=0 / direct=1 / weightb=1 / open_gop=0 / weightp=2 / keyint=250 / keyint_min=23 / scenecut=40 / intra_refresh=0 / rc_lookahead=40 / rc=2pass / mbtree=1 / bitrate=700 / ratetol=1.0 / qcomp=0.60 / qpmin=0 / qpmax=69 / qpstep=4 / cplxblur=20.0 / qblur=0.5 / ip_ratio=1.40 / aq=1:1.00
Encoded date : UTC 2015-06-12 15:52:55
Tagged date : UTC 2015-06-12 15:53:05

Audio
ID : 2
Format : AAC
Format/Info : Advanced Audio Codec
Format profile : LC
Codec ID : 40
Duration : 1h 44mn
Bit rate mode : Variable
Bit rate : 128 Kbps
Maximum bit rate : 158 Kbps
Channel(s) : 2 channels
Channel positions : Front: L R
Sampling rate : 48.0 KHz
Compression mode : Lossy
Stream size : 95.4 MiB (15%)
Encoded date : UTC 2015-06-12 15:50:37
Tagged date : UTC 2015-06-12 15:53:05
Форсаж 4 / Fast & Furious
Год выпуска: 2009
Страна: США / Universal Pictures, Original Film
Жанр: боевик, триллер, драма, криминал
Продолжительность: 01:46:52
Перевод: Профессиональный (полное дублирование)
Оригинальная дорожка: Нет
Cубтитры: Нет
Режиссер: Джастин Лин / Justin Lin
В ролях: Вин Дизель (Dominic Toretto), Пол Уокер (Brian O'Conner), Джордана Брюстер (Mia Toretto), Мишель Родригес (Letty), Джон Ортиз (Campos), Лас Алонсо (Fenix Rise), Гал Гадот (Gisele Harabo), Джек Конли (Penning), Ши Уигхэм (Agent Ben Stasiak), Лиза Лапира (Agent Sophie Trinh)

Описание: Когда кривая дорожка заставляет скрывающегося от правосудия Дома Торетто вернуться в Лос-Анджелес, вражда с агентом Брайаном О’Коннером вспыхивает с новой силой. Но у парочки обнаруживается общий противник, и Дому с Брайаном приходится заключить перемирие в надежде одержать над ним победу. Грабя конвои, роя подкопы и пересекая границы, они приходят к идеальной форме отмщения — педали газа, вдавленной до упора.

Качество: HDRip
Формат: MP4
Видео: AVC, 640x272 (2:35:1), 700 kbps, 23.976 fps
Аудио 1: Русский, AAC, 2 ch, 48 kHz, 128 kbps [Dub]
x264 [info]: frame I:3372 Avg QP:18.59 size: 17933
x264 [info]: frame P:75315 Avg QP:21.22 size: 5571
x264 [info]: frame B:75057 Avg QP:23.20 size: 1080

x264 [total]: encoded 153744 frames, 191.00 fps, 700.02 kb/s
General
Complete name : C:\Users\Vitalik\Videos\Форсаж 4 (Fast & Furious 4) 2009 HDRip.mp4
Format : MPEG-4
Format profile : Base Media
Codec ID : isom
File size : 636 MiB
Duration : 1h 46mn
Overall bit rate mode : Variable
Overall bit rate : 832 Kbps
Encoded date : UTC 2015-06-12 14:09:50
Tagged date : UTC 2015-06-12 14:09:50

Video
ID : 1
Format : AVC
Format/Info : Advanced Video Codec
Format profile : [email protected]
Format settings, CABAC : Yes
Format settings, ReFrames : 4 frames
Codec ID : avc1
Codec ID/Info : Advanced Video Coding
Duration : 1h 46mn
Bit rate : 700 Kbps
Maximum bit rate : 3 253 Kbps
Width : 640 pixels
Height : 272 pixels
Display aspect ratio : 2.35:1
Frame rate mode : Constant
Frame rate : 23.976 fps
Color space : YUV
Chroma subsampling : 4:2:0
Bit depth : 8 bits
Scan type : Progressive
Bits/(Pixel*Frame) : 0.168
Stream size : 535 MiB (84%)
Title : [email protected]-DEV-rev248-g39d5978-master
Writing library : x264 core 146 r2538 121396c
Encoding settings : cabac=1 / ref=3 / deblock=1:0:0 / analyse=0x3:0x113 / me=hex / subme=7 / psy=1 / psy_rd=1.00:0.00 / mixed_ref=1 / me_range=16 / chroma_me=1 / trellis=1 / 8x8dct=1 / cqm=0 / deadzone=21,11 / fast_pskip=1 / chroma_qp_offset=-2 / threads=6 / lookahead_threads=1 / sliced_threads=0 / nr=0 / decimate=1 / interlaced=0 / bluray_compat=0 / constrained_intra=0 / bframes=3 / b_pyramid=2 / b_adapt=1 / b_bias=0 / direct=1 / weightb=1 / open_gop=0 / weightp=2 / keyint=250 / keyint_min=23 / scenecut=40 / intra_refresh=0 / rc_lookahead=40 / rc=2pass / mbtree=1 / bitrate=700 / ratetol=1.0 / qcomp=0.60 / qpmin=0 / qpmax=69 / qpstep=4 / cplxblur=20.0 / qblur=0.5 / ip_ratio=1.40 / aq=1:1.00
Encoded date : UTC 2015-06-12 14:09:50
Tagged date : UTC 2015-06-12 14:10:00

Audio
ID : 2
Format : AAC
Format/Info : Advanced Audio Codec
Format profile : LC
Codec ID : 40
Duration : 1h 46mn
Bit rate mode : Variable
Bit rate : 128 Kbps
Maximum bit rate : 179 Kbps
Channel(s) : 2 channels
Channel positions : Front: L R
Sampling rate : 48.0 KHz
Compression mode : Lossy
Stream size : 97.7 MiB (15%)
Encoded date : UTC 2015-06-12 14:07:34
Tagged date : UTC 2015-06-12 14:10:00
Форсаж 5 / Fast Five
Год выпуска: 2011
Страна: США / Original Film
Жанр: боевик, триллер, драма, криминал
Продолжительность: 02:10:21
Перевод: Профессиональный (полное дублирование)
Оригинальная дорожка: Нет
Cубтитры: Нет
Режиссер: Джастин Лин / Justin Lin
В ролях: Вин Дизель (Dominic Toretto), Пол Уокер (Brian O'Conner), Джордана Брюстер (Mia Toretto), Дуэйн Джонсон (Luke Hobbs), Тайриз Гибсон (Roman Pearce), Лудакрис (Tej Parker), Мэтт Шульце (Vince), Санг Кенг (Han Lue), Галь Гадот (Gisele Harabo), Эльза Патаки (Elena Neves), Тего Калдерон (Tego Leo), Дон Омар (Rico Santos), Жоаким ди Алмейда (Hernan Reyes)

Описание: Бывший полицейский Брайан О`Коннер вместе с бывалым лихачом Домиником Торетто совсем немного увлеклись жизнью вне закона. После того, как Брайан и Миа Торетто освободили Доминика, они не рискуют долго задерживаться на одном месте, так как являются желанной целью порядком недовольных копов.

Качество: HDRip
Формат: MP4
Видео: AVC, 640x272 (2:35:1), 700 kbps, 23.976 fps
Аудио 1: Русский, AAC, 2 ch, 48 kHz, 128 kbps [Dub]
x264 [info]: frame I:3775 Avg QP:18.60 size: 17459
x264 [info]: frame P:90251 Avg QP:21.74 size: 5744
x264 [info]: frame B:93496 Avg QP:23.95 size: 1071

x264 [total]: encoded 187522 frames, 149.93 fps, 700.09 kb/s
General
Complete name : C:\Users\Vitalik\Videos\Форсаж 5 (Fast Five) 2011 HDRip.mp4
Format : MPEG-4
Format profile : Base Media
Codec ID : isom
File size : 776 MiB
Duration : 2h 10mn
Overall bit rate mode : Variable
Overall bit rate : 832 Kbps
Encoded date : UTC 2015-06-12 14:48:45
Tagged date : UTC 2015-06-12 14:48:45

Video
ID : 1
Format : AVC
Format/Info : Advanced Video Codec
Format profile : [email protected]
Format settings, CABAC : Yes
Format settings, ReFrames : 4 frames
Codec ID : avc1
Codec ID/Info : Advanced Video Coding
Duration : 2h 10mn
Bit rate : 700 Kbps
Maximum bit rate : 3 861 Kbps
Width : 640 pixels
Height : 272 pixels
Display aspect ratio : 2.35:1
Frame rate mode : Constant
Frame rate : 23.976 fps
Color space : YUV
Chroma subsampling : 4:2:0
Bit depth : 8 bits
Scan type : Progressive
Bits/(Pixel*Frame) : 0.168
Stream size : 653 MiB (84%)
Title : [email protected]-DEV-rev248-g39d5978-master
Writing library : x264 core 146 r2538 121396c
Encoding settings : cabac=1 / ref=3 / deblock=1:0:0 / analyse=0x3:0x113 / me=hex / subme=7 / psy=1 / psy_rd=1.00:0.00 / mixed_ref=1 / me_range=16 / chroma_me=1 / trellis=1 / 8x8dct=1 / cqm=0 / deadzone=21,11 / fast_pskip=1 / chroma_qp_offset=-2 / threads=6 / lookahead_threads=1 / sliced_threads=0 / nr=0 / decimate=1 / interlaced=0 / bluray_compat=0 / constrained_intra=0 / bframes=3 / b_pyramid=2 / b_adapt=1 / b_bias=0 / direct=1 / weightb=1 / open_gop=0 / weightp=2 / keyint=250 / keyint_min=23 / scenecut=40 / intra_refresh=0 / rc_lookahead=40 / rc=2pass / mbtree=1 / bitrate=700 / ratetol=1.0 / qcomp=0.60 / qpmin=0 / qpmax=69 / qpstep=4 / cplxblur=20.0 / qblur=0.5 / ip_ratio=1.40 / aq=1:1.00
Encoded date : UTC 2015-06-12 14:48:45
Tagged date : UTC 2015-06-12 14:48:59

Audio
ID : 2
Format : AAC
Format/Info : Advanced Audio Codec
Format profile : LC
Codec ID : 40
Duration : 2h 10mn
Bit rate mode : Variable
Bit rate : 128 Kbps
Maximum bit rate : 181 Kbps
Channel(s) : 2 channels
Channel positions : Front: L R
Sampling rate : 48.0 KHz
Compression mode : Lossy
Stream size : 119 MiB (15%)
Encoded date : UTC 2015-06-12 14:45:34
Tagged date : UTC 2015-06-12 14:48:59
[spoiler="Форсаж 6 / Furious 6 2013 [Театральная версия / Theatrical Cut]"]Форсаж 6 / Furious 6
Год выпуска: 2013
Страна: США / Etalon film, Original Film
Жанр: боевик, триллер, драма, криминал
Продолжительность: 02:10:06 [Театральная версия / Theatrical Cut]
Перевод: Профессиональный (полное дублирование)
Оригинальная дорожка: Нет
Cубтитры: Нет
Режиссер: Джастин Лин / Justin Lin
В ролях: Вин Дизель (Dominic Toretto), Пол Уокер (Brian O'Conner), Дуэйн Джонсон (Hobbs), Мишель Родригес (Letty), Люк Эванс (Shaw), Тайриз Гибсон (Roman), Лудакрис (Tej), Санг Кенг (Han), Галь Гадот (Gisele), Джордана Брюстер (Mia), Джина Карано (Riley), Эльза Патаки (Elena)

Описание: После того как Доминик и Брайн побывали в Рио, где они ограбили и свергли империю вора в законе, их команда получила 100 миллионов, и наши герои оказались разбросаны по всему миру. Но их привычка вечно жить в бегах не даёт им покоя. Между тем, Хоббс отслеживал организацию смертельно опасных наёмников-водителей по двенадцати странам. Единственный способ остановить эту криминальную группу — это превзойти их на улицах, поэтому Хоббс просит Дома собрать его элитную команду в Лондоне. За это он обещает полное помилование для Доминика и его друзей, чтобы они смогли наконец вернуться домой к своей семье.

Качество: HDRip
Формат: MP4
Видео: AVC, 640x272 (2:35:1), 700 kbps, 23.976 fps
Аудио 1: Русский, AAC, 2 ch, 48 kHz, 128 kbps [Dub]
x264 [info]: frame I:4201 Avg QP:17.99 size: 17253
x264 [info]: frame P:91945 Avg QP:20.84 size: 5552
x264 [info]: frame B:91026 Avg QP:23.44 size: 1101

x264 [total]: encoded 187172 frames, 164.02 fps, 700.02 kb/s
General
Complete name : X:\Всё для мобильных телефонов и КПК\Видео\Antology The Fast And The Furious 1-6\Форсаж 6 (Furious 6) 2013 HDRip [Theatrical Cut].mp4
Format : MPEG-4
Format profile : Base Media
Codec ID : isom
File size : 772 MiB
Duration : 2h 10mn
Overall bit rate mode : Variable
Overall bit rate : 830 Kbps
Encoded date : UTC 2015-06-15 09:56:41
Tagged date : UTC 2015-06-15 09:56:41

Video
ID : 1
Format : AVC
Format/Info : Advanced Video Codec
Format profile : [email protected]
Format settings, CABAC : Yes
Format settings, ReFrames : 4 frames
Codec ID : avc1
Codec ID/Info : Advanced Video Coding
Duration : 2h 10mn
Bit rate : 700 Kbps
Maximum bit rate : 4 390 Kbps
Width : 640 pixels
Height : 272 pixels
Display aspect ratio : 2.35:1
Frame rate mode : Constant
Frame rate : 23.976 fps
Color space : YUV
Chroma subsampling : 4:2:0
Bit depth : 8 bits
Scan type : Progressive
Bits/(Pixel*Frame) : 0.168
Stream size : 651 MiB (84%)
Title : [email protected]-DEV-rev248-g39d5978-master
Writing library : x264 core 146 r2538 121396c
Encoding settings : cabac=1 / ref=3 / deblock=1:0:0 / analyse=0x3:0x113 / me=hex / subme=7 / psy=1 / psy_rd=1.00:0.00 / mixed_ref=1 / me_range=16 / chroma_me=1 / trellis=1 / 8x8dct=1 / cqm=0 / deadzone=21,11 / fast_pskip=1 / chroma_qp_offset=-2 / threads=6 / lookahead_threads=1 / sliced_threads=0 / nr=0 / decimate=1 / interlaced=0 / bluray_compat=0 / constrained_intra=0 / bframes=3 / b_pyramid=2 / b_adapt=1 / b_bias=0 / direct=1 / weightb=1 / open_gop=0 / weightp=2 / keyint=250 / keyint_min=23 / scenecut=40 / intra_refresh=0 / rc_lookahead=40 / rc=2pass / mbtree=1 / bitrate=700 / ratetol=1.0 / qcomp=0.60 / qpmin=0 / qpmax=69 / qpstep=4 / cplxblur=20.0 / qblur=0.5 / ip_ratio=1.40 / aq=1:1.00
Encoded date : UTC 2015-06-15 09:56:41
Tagged date : UTC 2015-06-15 09:56:54

Audio
ID : 2
Format : AAC
Format/Info : Advanced Audio Codec
Format profile : LC
Codec ID : 40
Duration : 2h 10mn
Bit rate mode : Variable
Bit rate : 126 Kbps
Maximum bit rate : 216 Kbps
Channel(s) : 6 channels
Channel positions : Front: L C R, Side: L R, LFE
Sampling rate : 48.0 KHz
Compression mode : Lossy
Stream size : 117 MiB (15%)
Encoded date : UTC 2015-06-15 09:49:29
Tagged date : UTC 2015-06-15 09:56:54
[/spoiler]

Трекер:  [ 16-Июн-2015 15:30 ]

  

Скачать .torrent

Размер .torrent файла 21 KB


Размер: 3.98 GB
Хэш (hash) релиза: eb0506ed215a375158c074f68b59963b3568281f

Еще никто не оставлял запись к записи скачать торрент [VIDEO] Форсаж: Антология The Fast And The Furious: Antology . Будь первым!

!Обратная связь