Mandy Patinkin | Naruto: Shippuuden Movie 5 – Blood Prison | Running Man Episode 345

Скачать через торрент [VIDEO] Институт Аттикус The Atticus Institute бесплатно русская версия torrent активатор

Статистика раздачи
Размер:  898 MB   |    Зарегистрирован:  3 года 1 месяц   |    .torrent скачан:  24 раза   |   
Раздают:  1  
   
загрузка...
 
Автор Сообщение

Galfimbul

avatar Galfimbul


Институт Аттикус
The Atticus Institute

Год выпуска: 2015
Страна: США
Жанр: Ужасы
Продолжительность: 01:22:48
Перевод: Профессиональный (полное дублирование) iTunes
Оригинальная дорожка: Нет
Cубтитры: Нет
Режиссер: Крис Спарлинг / Chris Sparlin
В ролях: Джулиан Акоста, Энн Бетанкур, Карлос Е. Кампос, Джейк Карпентер, Хит Сентаццо, Брайан Ченоуэт, Ханна Коули, Аарон Крэвен, Динарте де Фрейтас, Лэндалл Гулсби
Описание: Ненри Уэст основал институт Аттикус, который занимается исследованием людей с паранормальными способностями — телекинез, телепатия и т. п. За всю его деятельность Уэст видел много разных случаев, но с появлением женщины Джудит Уинстед, всё что он видел ранее стало малозначительным. Сотрудники института были поражены ее сверх способностями, что привлекло внимание военных США, и дальнейшие исследования проводились под контролем армии. Все дальнейшие исследования Джудит дали понять докторам, что ее способности это происки дьявола и потусторонних сил, которые находились внутри женщины. Военные решают использовать Джудит в качестве оружия.
Но вскоре они понимают, что не со всякой властью они могут справиться.

Качество: HDRip (Рип с BDRip 1080p)
Формат: MP4
Видео: AVC, 960x518 (1.85:1), 1380 kbps, 23.976 fps
Аудио: Русский, AAC, 2 ch, 48 kHz, 128 kbps [Dub, iTunes]
x264 [info]: frame I:700 Avg QP:15.16 size: 64005
x264 [info]: frame P:21564 Avg QP:18.37 size: 16240
x264 [info]: frame B:96871 Avg QP:20.54 size: 4772

x264 [total]: encoded 119135 frames, 5.28 fps, 1380.21 kb/s
General
Complete name : [VIDEO] Institut.Attikus.2015.HDRip.x264.960x(semen_52-TNC).mp4
Format : MPEG-4
Format profile : Base Media
Codec ID : isom
File size : 898 MiB
Duration : 1h 22mn
Overall bit rate mode : Variable
Overall bit rate : 1 516 Kbps
Movie name : [VIDEO] Institut Attikus 2015 HDRip x264 960x(semen_52-TNC)
ContentType : Short Film
Encoded date : UTC 2015-06-15 15:27:19
Tagged date : UTC 2015-06-15 15:28:11
Writing application : MkvToMp4 version: 0.224 (x64)
Comment : Rip by semen_52-TNC

Video
ID : 1
Format : AVC
Format/Info : Advanced Video Codec
Format profile : [email protected]
Format settings, CABAC : Yes
Format settings, ReFrames : 10 frames
Codec ID : avc1
Codec ID/Info : Advanced Video Coding
Duration : 1h 22mn
Bit rate : 1 380 Kbps
Maximum bit rate : 12.7 Mbps
Width : 960 pixels
Height : 518 pixels
Display aspect ratio : 1.85:1
Frame rate mode : Constant
Frame rate : 23.976 fps
Color space : YUV
Chroma subsampling : 4:2:0
Bit depth : 8 bits
Scan type : Progressive
Bits/(Pixel*Frame) : 0.116
Stream size : 818 MiB (91%)
Writing library : x264 core 130 r2273 b3065e6
Encoding settings : cabac=1 / ref=10 / deblock=1:-3:-3 / analyse=0x3:0x113 / me=esa / subme=9 / psy=1 / psy_rd=1.00:0.15 / mixed_ref=1 / me_range=32 / chroma_me=1 / trellis=2 / 8x8dct=1 / cqm=0 / deadzone=21,11 / fast_pskip=0 / chroma_qp_offset=-2 / threads=12 / lookahead_threads=2 / sliced_threads=0 / nr=0 / decimate=1 / interlaced=0 / bluray_compat=0 / constrained_intra=0 / bframes=10 / b_pyramid=2 / b_adapt=2 / b_bias=0 / direct=1 / weightb=1 / open_gop=0 / weightp=2 / keyint=250 / keyint_min=25 / scenecut=40 / intra_refresh=0 / rc_lookahead=60 / rc=crf / mbtree=1 / crf=19.4 / qcomp=0.60 / qpmin=0 / qpmax=69 / qpstep=4 / ip_ratio=1.40 / aq=1:1.00
Language : English
Encoded date : UTC 2015-06-15 15:27:19
Tagged date : UTC 2015-06-15 15:27:36
Color primaries : BT.709
Transfer characteristics : BT.709
Matrix coefficients : BT.709
Color range : Limited

Audio
ID : 2
Format : AAC
Format/Info : Advanced Audio Codec
Format profile : LC
Codec ID : 40
Duration : 1h 22mn
Bit rate mode : Variable
Bit rate : 128 Kbps
Maximum bit rate : 135 Kbps
Channel(s) : 2 channels
Channel positions : Front: L R
Sampling rate : 48.0 KHz
Compression mode : Lossy
Stream size : 75.8 MiB (8%)
Title : Dub iTunes / Dub iTunes
Language : Russian
Encoded date : UTC 2015-06-15 15:27:32
Tagged date : UTC 2015-06-15 15:27:36


Трекер:  [ 16-Июн-2015 15:30 ]

  

Скачать .torrent

Размер .torrent файла 18 KB


Размер: 898 MB
Хэш (hash) релиза: e6f831200a292f007d33f92e69f00ae3fd87a399

Торренты, похожие на [VIDEO] Институт Аттикус The Atticus Institute скачать торрент

Форум Название Автор Размер S L Добавлен
Видео (Фильмы/Клипы) ·· [VIDEO] Институт Аттикус / The Atticus Institute (Крис Спарлинг / Chris Sparling) [2015, США, ужасы, BDRip][MP4, 640x] Dub Galfimbul 751731377717 MB 0 0 1434464389

17:19

16-Июн-15

Еще никто не оставлял запись к записи скачать торрент [VIDEO] Институт Аттикус The Atticus Institute . Будь первым!

!Обратная связь