Back to homepage | Strippers: Cars for Cash | Narcos (2015)

Скачать через торрент [SERIAL] Больница Никербокер The Knick бесплатно русская версия torrent активатор

Статистика раздачи
Размер:  2.29 GB   |    Зарегистрирован:  3 года 1 месяц   |    .torrent скачан:  47 раз   |   
Раздают:  1  
   
загрузка...
 
Автор Сообщение

Galfimbul

avatar Galfimbul


Больница Никербокер / The Knick
Год выпуска: 2014

Страна:
Жанр: драма
Продолжительность: 10 х ~43-58 мин
Перевод: Профессиональный (многоголосый закадровый) AlexFilm
Cубтитры: нет
Режиссер: Стивен Содерберг / Steven Soderbergh
В ролях: Клайв Оуэн, Эрик Джонсон, Майкл Ангарано, Андре Холлэнд, Джульетта Райлэнс, Крис Салливан, Ив Хьюсон, Кэра Сеймур, Джереми Бобб, Грейнджер Хайнс, Сюзанна Савой Начало XX века. Доктор Джон У. Такер - хирург в нью-йоркской больнице «Никербокер». Здесь применяют передовые методы и стараются помочь всем пациентам. Но до изобретения лазерного скальпеля и компьютерной томографии еще очень далеко, а в карету скорой помощи запрягают лошадей. Врачи, медицинские сестры и другой персонал больницы делают все возможное, стараясь спасти людей.Кинопоиск | IMDB
[b]Качество: HDTVRip
Исходник: [url=...4801997]The Knick - Season 1 (AlexFilm) HDTVRip 720p[/url]
Формат: MP4
Видео: AVC, 480x268 (16:9), 512 kbps, 23,976fps
Аудио: Русский [Многоголосый], AAC, 48kHz, (2 ch), 128,0 kbps[/b]
01: Method and Madness

02: Mr. Paris Shoes

03: The Busy Flea

04: Where's the Dignity

05: They Capture the Heat

06: Start Calling Me Dad

07: Get the Rope

08: Working Late a Lot

09: The Golden Lotus

10: Crutchfield

ОбщееПолное имя : The Knick s01\The.Knick.s01e03.HDTVRip.720p.Rus.Eng.AlexFilm.mp4Формат : MPEG-4Профиль формата : Base MediaИдентификатор кодека : isomРазмер файла : 251 МбайтПродолжительность : 54 м.Режим общего битрейта : ПеременныйОбщий поток : 644 Кбит/секДата кодирования : UTC 2015-06-14 13:51:14Дата пометки : UTC 2015-06-14 13:51:14

ВидеоИдентификатор : 1Формат : AVCФормат/Информация : Advanced Video CodecПрофиль формата : [email protected]Параметр CABAC формата : ДаПараметр ReFrames формата : 9 кадровИдентификатор кодека : avc1Идентификатор кодека/Информация : Advanced Video CodingПродолжительность : 54 м.Битрейт : 512 Кбит/секМаксимальный битрейт : 1829 Кбит/секШирина : 480 пикселейВысота : 268 пикселейСоотношение сторон : 16:9Режим частоты кадров : ПостоянныйЧастота кадров : 23,976 кадра/секЦветовое пространство : YUVСубдискретизация насыщенности : 4:2:0Битовая глубина : 8 битТип развёртки : ПрогрессивнаяБит/(Пиксели*Кадры) : 0.166Размер потока : 200 Мбайт (80%)Заголовок : [email protected]-DEV-rev248-g39d5978-masterБиблиотека кодирования : x264 core 146 r2538 121396cДата кодирования : UTC 2015-06-14 13:51:14Дата пометки : UTC 2015-06-14 13:51:26

АудиоИдентификатор : 2Формат : AACФормат/Информация : Advanced Audio CodecПрофиль формата : LCИдентификатор кодека : 40Продолжительность : 54 м.Вид битрейта : ПеременныйБитрейт : 128 Кбит/секМаксимальный битрейт : 184 Кбит/секКаналы : 2 каналаРасположение каналов : Front: L RЧастота : 48,0 КГцМетод сжатия : С потерямиРазмер потока : 49,9 Мбайт (20%)Дата кодирования : UTC 2015-06-14 12:18:30Дата пометки : UTC 2015-06-14 13:51:26


Трекер:  [ 16-Июн-2015 15:30 ]

  

Скачать .torrent

Размер .torrent файла 12 KB


Размер: 2.29 GB
Хэш (hash) релиза: b4fd3c735cfa55087c3e65fe14424d3261169c6a

Еще никто не оставлял запись к записи скачать торрент [SERIAL] Больница Никербокер The Knick . Будь первым!

!Обратная связь