Die Diplomatin | Carlo Sciortino | HD The Boss Baby (2017)

Скачать через торрент [VIDEO] Дом, милый ад Home Sweet Hell бесплатно русская версия torrent активатор

Статистика раздачи
Размер:  514 MB   |    Зарегистрирован:  3 года 1 месяц   |    .torrent скачан:  29 раз   |   
Раздают:  1  
   
загрузка...
 
Автор Сообщение

Galfimbul

avatar Galfimbul


Дом, милый ад / Home Sweet Hell
Год выпуска: 2015

Страна:
Жанр: триллер, комедия, драма
Продолжительность: 01:37:51
Перевод: Профессиональный (многоголосый закадровый) iTunes Russia
Cубтитры: нет
Режиссер: Энтони Бернс / Anthony Burns
В ролях: Патрик Уилсон, Кэтрин Хайгл, Джордана Брюстер, Джеймс Белуши, Кевин МакКидд, А.Дж. Бакли, Брайс Джонсон, Алишия Окс, Стеффи Гроут, Мэдисон Вульф Соблазнительная и интригующая новая сотрудница компании становится проблемой для бизнесмена, который женат на одержимой женщине, пытающейся контролировать все аспекты его жизни.Кинопоиск | IMDB
[b]Качество: HDRip
Исходник: Home.Sweet.Hell.2015.720p.BluRay HDCLUB
Формат: MP4
Видео: AVC, 640x272 (2,35:1), 604 kbps, 23,976fps
Аудио: Русский [Многоголосый], AAC, 48kHz, (2 ch), 128,0 kbps[/b]
ОбщееПолное имя : Home Sweet Hell 2015.mp4Формат : MPEG-4Профиль формата : Base MediaИдентификатор кодека : isomРазмер файла : 514 МбайтПродолжительность : 1 ч. 37 м.Режим общего битрейта : ПеременныйОбщий поток : 735 Кбит/секДата кодирования : UTC 2015-05-25 16:54:50Дата пометки : UTC 2015-05-25 16:54:50

ВидеоИдентификатор : 1Формат : AVCФормат/Информация : Advanced Video CodecПрофиль формата : [email protected]Параметр CABAC формата : ДаПараметр ReFrames формата : 9 кадровИдентификатор кодека : avc1Идентификатор кодека/Информация : Advanced Video CodingПродолжительность : 1 ч. 37 м.Битрейт : 604 Кбит/секМаксимальный битрейт : 2688 Кбит/секШирина : 640 пикселейВысота : 272 пикселяСоотношение сторон : 2,35:1Режим частоты кадров : ПостоянныйЧастота кадров : 23,976 кадра/секЦветовое пространство : YUVСубдискретизация насыщенности : 4:2:0Битовая глубина : 8 битТип развёртки : ПрогрессивнаяБит/(Пиксели*Кадры) : 0.145Размер потока : 422 Мбайт (82%)Заголовок : [email protected]-DEV-rev248-g39d5978-masterБиблиотека кодирования : x264 core 146 r2538 121396cДата кодирования : UTC 2015-05-25 16:54:50Дата пометки : UTC 2015-05-25 16:55:20

АудиоИдентификатор : 2Формат : AACФормат/Информация : Advanced Audio CodecПрофиль формата : LCИдентификатор кодека : 40Продолжительность : 1 ч. 37 м.Вид битрейта : ПеременныйБитрейт : 128 Кбит/секМаксимальный битрейт : 173 Кбит/секКаналы : 2 каналаРасположение каналов : Front: L RЧастота : 48,0 КГцМетод сжатия : С потерямиРазмер потока : 89,6 Мбайт (17%)Дата кодирования : UTC 2015-05-25 12:28:09Дата пометки : UTC 2015-05-25 16:55:20


Трекер:  [ 26-Май-2015 21:00 ]

  

Скачать .torrent

Размер .torrent файла 10 KB


Размер: 514 MB
Хэш (hash) релиза: d193cdd3e8dc9f1efae8ca66ab4c249550cf5689

Еще никто не оставлял запись к записи скачать торрент [VIDEO] Дом, милый ад Home Sweet Hell . Будь первым!

!Обратная связь