Форс-мажоры | Baba Yaga FRENCH BluRay 720p 2017 | Шесть / Шестой отряд / Six [02x01-06 из 10] (2018) WEB-DLRip | Gears Media

Скачать через торрент [SERIAL] Агенты Щ.И.Т. Agents of S.H.I.E.L.D. бесплатно русская версия torrent активатор

Статистика раздачи
Размер:  5.48 GB   |    Зарегистрирован:  3 года 1 месяц   |    .torrent скачан:  467 раз   |   
Раздают:  1  
   
загрузка...
 
Автор Сообщение

Galfimbul

avatar Galfimbul


Агенты Щ.И.Т. / Agents of S.H.I.E.L.D.
Год выпуска: 2013-2014
Страна: США
Жанр: фантастика, фантастика, боевик, драма
Продолжительность: по ~ 00:43:00
Перевод: Профессиональный (многоголосый, закадровый от LostFilm)
Оригинальная дорожка: Нет
Cубтитры: Нет
Режиссер: Джесси Бокко / Jesse Bochco, Милан Чейлов / Milan Cheylov, Роксанн Доусон / Roxann Dawson
В ролях: Кларк Грегг, Минг-На, Бретт Далтон, Хлоя Беннет, Йен де Кестекер, Элизабет Хенстридж, Дж. Аугуст Ричардс, Шеннон Лусио, Рон Гласс, Роберт Дж. Стефенсон, Коби Смолдерс, Аарон Бер, Николь Дж. Батлер, Сара Дюмон, Леонор Варела, Иэн Харт, Дэвид Конрад и др.

Описание: Действия сериала разворачиваются после событий в фильме "Мстители". Агент Фил Колсон возвращается в правоохранительную организацию под названием Щ.И.Т. Собрав небольшую команду профессионалов, он начинает работу над новыми делами, которые порой бывают очень странными. В команде Щ.И.Т.а мы увидим довольно-таки прямолинейного агента - Гранта, который является экспертом по шпионаже и боевым действиям; так же числе специалист по восточным единоборствам и пилот - агент Мелинда Мэй; гениальные ученые-социофобы Джемма Симмонс и Лео Фитц; недавно рекрутированный хакер - Скай. Сериал снятый по комиксам от Marvel's "Агенты Щ.И.Т.а" это настоящее эпическое приключение, демонстрирующее чудо человеческого духа и надежду на лучшее. Вы погрузитесь в мир супергероев, в мир неизведанного, в мир пришельцев, зрелищ и невероятных историй. Телесериал "Агенты Щ.И.Т.а" показывает нам не людей со сверхспособностями, а людей с огромной силой воли и невероятной храбростью, ведь несмотря на отсутствие каких-либо необычайных способностей, эти агенты рвутся в бой и спасают весь мир от злодеев и гибели. Ведь каждый из агентов по отдельности это сила и ум, ну а вместе они способны спасти всю планету.

Качество: WEB-DLRip
Формат: MP4
Видео: AVC, 640x360 (16:9), 700 kbps, 23.976 fps
Аудио 1: Русский, AAC, 2 ch, 48 kHz, 128 kbps [MVO LostFilm]
<ol type="1">
Тени /Shadows
Нет покоя голове в венце /Heavy Is the Head
Как завоевать друзей и оказать влияние на людей /Making Friends and Influencing People
Лицом к лицу с врагом /Face My Enemy
Курица в волчьей норе /A Hen in the Wolfhouse
Дом с трещиной /A Fractured House
Надписи на стене /The Writing on the Wall
То, что мы хороним /The Things We Bury
Всяк сюда входящий /Ye Who Enter Here
Чем они станут /What They Become
Отголоски /Aftershocks
Кто ты на самом деле /Who You Really Are
Одна из нас /One of Us
Любовь во времена Гидры /Love in the Time of Hydra
Когда одна дверь закрывается /One Door Closes
Посмертие /Afterlife
Мелинда /Melinda
Заклятый друг моего врага /Frenemy of My Enemy
Грязные полдюжины /The Dirty Half Dozen
Шрамы /Scars
S.O.S. Часть 1 /S.O.S. Part 1
S.O.S. Часть 2 /S.O.S. Part 2
</ol>
x264 [info]: frame I:1152 Avg QP:17.05 size: 21915
x264 [info]: frame P:26500 Avg QP:20.41 size: 6124
x264 [info]: frame B:35971 Avg QP:22.66 size: 1242

x264 [total]: encoded 63623 frames, 134.93 fps, 700.03 kb/s
General
Complete name : C:\Users\Vitalik\Videos\А.Г.Е.Н.Т ЩИТ\Marvels.Agents.of.S.H.I.E.L.D.S01E01.rus.LostFilm.mp4
Format : MPEG-4
Format profile : Base Media
Codec ID : isom
File size : 263 MiB
Duration : 44mn 13s
Overall bit rate mode : Variable
Overall bit rate : 832 Kbps
Encoded date : UTC 2015-05-24 08:21:49
Tagged date : UTC 2015-05-24 08:21:49

Video
ID : 1
Format : AVC
Format/Info : Advanced Video Codec
Format profile : [email protected]
Format settings, CABAC : Yes
Format settings, ReFrames : 4 frames
Codec ID : avc1
Codec ID/Info : Advanced Video Coding
Duration : 44mn 13s
Bit rate : 700 Kbps
Maximum bit rate : 4 558 Kbps
Width : 640 pixels
Height : 360 pixels
Display aspect ratio : 16:9
Frame rate mode : Constant
Frame rate : 23.976 fps
Color space : YUV
Chroma subsampling : 4:2:0
Bit depth : 8 bits
Scan type : Progressive
Bits/(Pixel*Frame) : 0.127
Stream size : 221 MiB (84%)
Title : [email protected]-DEV-rev248-g39d5978-master
Writing library : x264 core 146 r2538 121396c
Encoding settings : cabac=1 / ref=3 / deblock=1:0:0 / analyse=0x3:0x113 / me=hex / subme=7 / psy=1 / psy_rd=1.00:0.00 / mixed_ref=1 / me_range=16 / chroma_me=1 / trellis=1 / 8x8dct=1 / cqm=0 / deadzone=21,11 / fast_pskip=1 / chroma_qp_offset=-2 / threads=6 / lookahead_threads=1 / sliced_threads=0 / nr=0 / decimate=1 / interlaced=0 / bluray_compat=0 / constrained_intra=0 / bframes=3 / b_pyramid=2 / b_adapt=1 / b_bias=0 / direct=1 / weightb=1 / open_gop=0 / weightp=2 / keyint=250 / keyint_min=23 / scenecut=40 / intra_refresh=0 / rc_lookahead=40 / rc=2pass / mbtree=1 / bitrate=700 / ratetol=1.0 / qcomp=0.60 / qpmin=0 / qpmax=69 / qpstep=4 / cplxblur=20.0 / qblur=0.5 / ip_ratio=1.40 / aq=1:1.00
Encoded date : UTC 2015-05-24 08:21:49
Tagged date : UTC 2015-05-24 08:21:54

Audio
ID : 2
Format : AAC
Format/Info : Advanced Audio Codec
Format profile : LC
Codec ID : 40
Duration : 44mn 13s
Bit rate mode : Variable
Bit rate : 128 Kbps
Maximum bit rate : 146 Kbps
Channel(s) : 2 channels
Channel positions : Front: L R
Sampling rate : 48.0 KHz
Compression mode : Lossy
Stream size : 40.4 MiB (15%)
Encoded date : UTC 2015-05-24 08:20:46
Tagged date : UTC 2015-05-24 08:21:54
Внимание! Раздача ведётся путём добавления новых серий; при каждом добавлении создётся новый торрент. Чтобы начать докачку новой серии, пользователям необходимо сделать следующее:
(1) остановить скачивание,
(2) удалить старый торрент у себя из клиента (старые серии удалять не надо),
(3) скачать новый торрент и запустить его у себя в клиенте вместо старого, при этом указать клиенту путь в старую папку куда и должно происходить скачивание новых серий.
Ваш клиент при этом должен произвести хеширование (проверку) старой папки (если не производит сам - помогите ему сделать это), и будет докачивать только те серии которых у вас ещё нет. Старые серии при этом не удаляются, а продолжают раздаваться!
Eсли вы уже удалили старые серии, то предотвратить повторную закачку старых серий можно, отжав галочку в соответсвующих местах при запуске нового торрента. По возможности, желательно не удалять старые серии как можно дольше чтобы релизёр не столько продолжал раздавать старые серии, а смог сконцентрироваться на новых


Трекер:  [ 26-Май-2015 19:30 ]

  

Скачать .torrent

Размер .torrent файла 16 KB


Размер: 5.48 GB
Хэш (hash) релиза: 851a27000886c3612e6b62f4814d9eae9fd71bec

Еще никто не оставлял запись к записи скачать торрент [SERIAL] Агенты Щ.И.Т. Agents of S.H.I.E.L.D. . Будь первым!

!Обратная связь