Más detalles | Demigodchina | 24 Hours In A and E S15E03 720p HDTV x264-QPEL 45 minutes

Скачать через торрент [SERIAL] Дневники вампира Дневники вампира бесплатно русская версия torrent активатор

Статистика раздачи
Размер:  7.78 GB   |    Зарегистрирован:  3 года 1 месяц   |    .torrent скачан:  44 раза   |   
Раздают:  1  
   
загрузка...
 
Автор Сообщение

Galfimbul

avatar Galfimbul


Дневники вампира / Дневники вампира

Год выпуска: 2012

Страна: США
Жанр: ужасы, фэнтези, драма, мелодрама
Продолжительность: 00:42:00
Перевод: Профессиональный (многоголосый закадровый) (LostFilm)
Cубтитры: нет
Оригинальная аудиодорожка: нет

Режиссер: Маркос Сига

В ролях: Нина Добрев, Пол Уэсли, Иен Сомерхолдер, Стивен Р. МакКуин, Катерина Грэхэм, Кэндис Аккола, Зак Рериг, Сара Каннинг, Майкл Тревино, Мэттью Дэвис, Маргарит МакИнтайр, Малез Джоу...

Описание: Прошло всего четыре месяца после трагической аварии, в которой погибли их родители, и 17-летняя Елена Гилберт и ее 15-летний брат Джереми все еще пытаются оправиться от потери и вернуться к нормальной жизни. Елена всегда была отличной ученицей, красивой и популярной девушкой в школе, но теперь ей очень тяжело скрывать свою печаль от внешнего мира. В начале учебного года внимание Елены и ее друзей привлекает новый ученик, загадочный и красивый Стефан Сальваторе.

Стефан и Елена тут же чувствуют взаимную симпатию, но Елена даже не подозревает, что Стефан — вампир, которому уже сотни лет, и который старается мирно жить среди людей, несмотря на то, что его брат, Дэймон — воплощение вампирской жестокости и кровожадности. Теперь два брата-вампира — один добрый, другой злой — ведут борьбу за души Елены, ее друзей и других жителей городка Мистик Фоллз.Качество: WEB-DLRip
Формат: MP4
Видео кодек: XviD
Аудио кодек: AAC
Видео: MPEG-4 Visual at 1080 Кбит/сек; 640 x 360 (1.778) at 23.772 fps
Аудио: AAC at 128 Кбит/сек; 2 канала, 44,1 КГц

Релиз от -
01: День рождения
02: Гибрид
03: Конец интриги
04: Возмутительное поведение
05: Отсчёт
06: Повеяло молодостью
07: Мир призраков
08: Простые люди
09: Бал выпускников
10: Новая сделка
11: Наш город
12: Узы, что связывают
13: Воскрешая мертвецов
14: Опасные связи
15: Все мои дети
16: 1912 год
17: Прорыв
18: Убийство одного
19: Сердце тьмы
20: Обойдемся без нежностей
21: До захода солнца
22: Усопшие
ОбщееПолное имя : D:\Фильмы\Сериалы\The Vampire Diaries.S03.2012.WEB-DLRip.MP4.rip by [Asssassin's Creed]\The Vampire Diaries.E01.WEB-DLRip.MP4.rip by [Asssassin's Creed].mp4Формат : MPEG-4Профиль формата : Base Media / Version 2Идентификатор кодека : mp42Размер файла : 364 МбайтПродолжительность : 42 м.Режим общего битрейта : ПеременныйОбщий поток : 1210 Кбит/секДата кодирования : UTC 2015-05-07 20:14:41Дата пометки : UTC 2015-05-07 20:14:41

ВидеоИдентификатор : 201Формат : MPEG-4 VisualПрофиль формата : Advanced [email protected]Параметр BVOP формата : НетПараметр QPel формата : НетПараметр GMC формата : Без точки переходаПараметр матрицы формата : Default (H.263)Идентификатор кодека : 20Продолжительность : 42 м.Вид битрейта : ПеременныйБитрейт : 1080 Кбит/секМаксимальный битрейт : 5868 Кбит/секШирина : 640 пикселейВысота : 360 пикселейСоотношение сторон : 16:9Режим частоты кадров : ПеременныйЧастота кадров : 23,772 кадра/секЧастота кадров в оригинале : 23,976 кадра/секМинимальная частота кадров : 0,324 кадр/секМаксимальная частота кадров : 23,976 кадра/секЦветовое пространство : YUVСубдискретизация насыщенности : 4:2:0Битовая глубина : 8 битТип развёртки : ПрогрессивнаяМетод сжатия : С потерямиБит/(Пиксели*Кадры) : 0.197Размер потока : 325 Мбайт (89%)Библиотека кодирования : XviD 1.2.1 (UTC 2008-12-04)Дата кодирования : UTC 2015-05-07 20:14:41Дата пометки : UTC 2015-05-07 20:14:58

АудиоИдентификатор : 101Формат : AACФормат/Информация : Advanced Audio CodecПрофиль формата : LCИдентификатор кодека : 40Продолжительность : 42 м.Вид битрейта : ПеременныйБитрейт : 128 Кбит/секМаксимальный битрейт : 162 Кбит/секКаналы : 2 каналаРасположение каналов : Front: L RЧастота : 44,1 КГцМетод сжатия : С потерямиРазмер потока : 38,5 Мбайт (11%)Дата кодирования : UTC 2015-05-07 20:14:57Дата пометки : UTC 2015-05-07 20:14:58

Прочее #1Идентификатор : 2Тип : Object descriptionФормат : SystemИдентификатор кодека : 1Продолжительность : 1 с. 0 мс.Дата кодирования : UTC 2015-05-07 20:14:58Дата пометки : UTC 2015-05-07 20:14:58

Прочее #2Идентификатор : 1Тип : Scene descriptionФормат : System CoreИдентификатор кодека : 2Продолжительность : 1 с. 0 мс.Дата кодирования : UTC 2015-05-07 20:14:58Дата пометки : UTC 2015-05-07 20:14:58

ОбщееПолное имя : D:\Фильмы\Сериалы\The Vampire Diaries.S03.2012.WEB-DLRip.MP4.rip by [Asssassin's Creed]\The Vampire Diaries.E02.WEB-DLRip.MP4.rip by [Asssassin's Creed].mp4Формат : MPEG-4Профиль формата : Base Media / Version 2Идентификатор кодека : mp42Размер файла : 359 МбайтПродолжительность : 41 м.Режим общего битрейта : ПеременныйОбщий поток : 1210 Кбит/секДата кодирования : UTC 2015-05-10 09:47:40Дата пометки : UTC 2015-05-10 09:47:40

ВидеоИдентификатор : 201Формат : MPEG-4 VisualПрофиль формата : Advanced [email protected]Параметр BVOP формата : НетПараметр QPel формата : НетПараметр GMC формата : Без точки переходаПараметр матрицы формата : Default (H.263)Идентификатор кодека : 20Продолжительность : 41 м.Вид битрейта : ПеременныйБитрейт : 1081 Кбит/секМаксимальный битрейт : 7326 Кбит/секШирина : 640 пикселейВысота : 360 пикселейСоотношение сторон : 16:9Режим частоты кадров : ПеременныйЧастота кадров : 23,765 кадра/секЧастота кадров в оригинале : 23,976 кадра/секМинимальная частота кадров : 0,145 кадр/секМаксимальная частота кадров : 23,976 кадра/секЦветовое пространство : YUVСубдискретизация насыщенности : 4:2:0Битовая глубина : 8 битТип развёртки : ПрогрессивнаяМетод сжатия : С потерямиБит/(Пиксели*Кадры) : 0.197Размер потока : 320 Мбайт (89%)Библиотека кодирования : XviD 1.2.1 (UTC 2008-12-04)Дата кодирования : UTC 2015-05-10 09:47:40Дата пометки : UTC 2015-05-10 09:47:58

АудиоИдентификатор : 101Формат : AACФормат/Информация : Advanced Audio CodecПрофиль формата : LCИдентификатор кодека : 40Продолжительность : 41 м.Вид битрейта : ПеременныйБитрейт : 128 Кбит/секМаксимальный битрейт : 162 Кбит/секКаналы : 2 каналаРасположение каналов : Front: L RЧастота : 44,1 КГцМетод сжатия : С потерямиРазмер потока : 37,9 Мбайт (11%)Дата кодирования : UTC 2015-05-10 09:47:56Дата пометки : UTC 2015-05-10 09:47:58

Прочее #1Идентификатор : 2Тип : Object descriptionФормат : SystemИдентификатор кодека : 1Продолжительность : 1 с. 0 мс.Дата кодирования : UTC 2015-05-10 09:47:58Дата пометки : UTC 2015-05-10 09:47:58

Прочее #2Идентификатор : 1Тип : Scene descriptionФормат : System CoreИдентификатор кодека : 2Продолжительность : 1 с. 0 мс.Дата кодирования : UTC 2015-05-10 09:47:58Дата пометки : UTC 2015-05-10 09:47:58

ОбщееПолное имя : D:\Фильмы\Сериалы\The Vampire Diaries.S03.2012.WEB-DLRip.MP4.rip by [Asssassin's Creed]\The Vampire Diaries.E03.WEB-DLRip.MP4.rip by [Asssassin's Creed].mp4Формат : MPEG-4Профиль формата : Base Media / Version 2Идентификатор кодека : mp42Размер файла : 369 МбайтПродолжительность : 42 м.Режим общего битрейта : ПеременныйОбщий поток : 1210 Кбит/секДата кодирования : UTC 2015-05-10 12:27:45Дата пометки : UTC 2015-05-10 12:27:45

ВидеоИдентификатор : 201Формат : MPEG-4 VisualПрофиль формата : Advanced [email protected]Параметр BVOP формата : НетПараметр QPel формата : НетПараметр GMC формата : Без точки переходаПараметр матрицы формата : Default (H.263)Идентификатор кодека : 20Продолжительность : 42 м.Вид битрейта : ПеременныйБитрейт : 1081 Кбит/секМаксимальный битрейт : 5400 Кбит/секШирина : 640 пикселейВысота : 360 пикселейСоотношение сторон : 16:9Режим частоты кадров : ПеременныйЧастота кадров : 23,720 кадра/секЧастота кадров в оригинале : 23,976 кадра/секМинимальная частота кадров : 0,250 кадр/секМаксимальная частота кадров : 23,976 кадра/секЦветовое пространство : YUVСубдискретизация насыщенности : 4:2:0Битовая глубина : 8 битТип развёртки : ПрогрессивнаяМетод сжатия : С потерямиБит/(Пиксели*Кадры) : 0.198Размер потока : 329 Мбайт (89%)Библиотека кодирования : XviD 1.2.1 (UTC 2008-12-04)Дата кодирования : UTC 2015-05-10 12:27:45Дата пометки : UTC 2015-05-10 12:27:59

АудиоИдентификатор : 101Формат : AACФормат/Информация : Advanced Audio CodecПрофиль формата : LCИдентификатор кодека : 40Продолжительность : 42 м.Вид битрейта : ПеременныйБитрейт : 128 Кбит/секМаксимальный битрейт : 202 Кбит/секКаналы : 2 каналаРасположение каналов : Front: L RЧастота : 44,1 КГцМетод сжатия : С потерямиРазмер потока : 39,0 Мбайт (11%)Дата кодирования : UTC 2015-05-10 12:27:58Дата пометки : UTC 2015-05-10 12:27:59

Прочее #1Идентификатор : 2Тип : Object descriptionФормат : SystemИдентификатор кодека : 1Продолжительность : 1 с. 0 мс.Дата кодирования : UTC 2015-05-10 12:27:59Дата пометки : UTC 2015-05-10 12:27:59

Прочее #2Идентификатор : 1Тип : Scene descriptionФормат : System CoreИдентификатор кодека : 2Продолжительность : 1 с. 0 мс.Дата кодирования : UTC 2015-05-10 12:27:59Дата пометки : UTC 2015-05-10 12:27:59

ОбщееПолное имя : D:\Фильмы\Сериалы\The Vampire Diaries.S03.2012.WEB-DLRip.MP4.rip by [Asssassin's Creed]\The Vampire Diaries.E04.WEB-DLRip.MP4.rip by [Asssassin's Creed].mp4Формат : MPEG-4Профиль формата : Base Media / Version 2Идентификатор кодека : mp42Размер файла : 359 МбайтПродолжительность : 41 м.Режим общего битрейта : ПеременныйОбщий поток : 1210 Кбит/секДата кодирования : UTC 2015-05-10 15:42:39Дата пометки : UTC 2015-05-10 15:42:39

ВидеоИдентификатор : 201Формат : MPEG-4 VisualПрофиль формата : Advanced [email protected]Параметр BVOP формата : НетПараметр QPel формата : НетПараметр GMC формата : Без точки переходаПараметр матрицы формата : Default (H.263)Идентификатор кодека : 20Продолжительность : 41 м.Вид битрейта : ПеременныйБитрейт : 1080 Кбит/секМаксимальный битрейт : 4721 Кбит/секШирина : 640 пикселейВысота : 360 пикселейСоотношение сторон : 16:9Режим частоты кадров : ПеременныйЧастота кадров : 23,745 кадра/секЧастота кадров в оригинале : 23,976 кадра/секМинимальная частота кадров : 0,279 кадр/секМаксимальная частота кадров : 23,976 кадра/секЦветовое пространство : YUVСубдискретизация насыщенности : 4:2:0Битовая глубина : 8 битТип развёртки : ПрогрессивнаяМетод сжатия : С потерямиБит/(Пиксели*Кадры) : 0.197Размер потока : 321 Мбайт (89%)Библиотека кодирования : XviD 1.2.1 (UTC 2008-12-04)Дата кодирования : UTC 2015-05-10 15:42:39Дата пометки : UTC 2015-05-10 15:42:55

АудиоИдентификатор : 101Формат : AACФормат/Информация : Advanced Audio CodecПрофиль формата : LCИдентификатор кодека : 40Продолжительность : 41 м.Вид битрейта : ПеременныйБитрейт : 128 Кбит/секМаксимальный битрейт : 162 Кбит/секКаналы : 2 каналаРасположение каналов : Front: L RЧастота : 44,1 КГцМетод сжатия : С потерямиРазмер потока : 38,0 Мбайт (11%)Дата кодирования : UTC 2015-05-10 15:42:54Дата пометки : UTC 2015-05-10 15:42:55

Прочее #1Идентификатор : 2Тип : Object descriptionФормат : SystemИдентификатор кодека : 1Продолжительность : 1 с. 0 мс.Дата кодирования : UTC 2015-05-10 15:42:55Дата пометки : UTC 2015-05-10 15:42:55

Прочее #2Идентификатор : 1Тип : Scene descriptionФормат : System CoreИдентификатор кодека : 2Продолжительность : 1 с. 0 мс.Дата кодирования : UTC 2015-05-10 15:42:55Дата пометки : UTC 2015-05-10 15:42:55

ОбщееПолное имя : D:\Фильмы\Сериалы\The Vampire Diaries.S03.2012.WEB-DLRip.MP4.rip by [Asssassin's Creed]\The Vampire Diaries.E05.WEB-DLRip.MP4.rip by [Asssassin's Creed].mp4Формат : MPEG-4Профиль формата : Base Media / Version 2Идентификатор кодека : mp42Размер файла : 367 МбайтПродолжительность : 42 м.Режим общего битрейта : ПеременныйОбщий поток : 1210 Кбит/секДата кодирования : UTC 2015-05-10 18:33:20Дата пометки : UTC 2015-05-10 18:33:20

ВидеоИдентификатор : 201Формат : MPEG-4 VisualПрофиль формата : Advanced [email protected]Параметр BVOP формата : НетПараметр QPel формата : НетПараметр GMC формата : Без точки переходаПараметр матрицы формата : Default (H.263)Идентификатор кодека : 20Продолжительность : 42 м.Вид битрейта : ПеременныйБитрейт : 1081 Кбит/секМаксимальный битрейт : 10,3 Мбит/секШирина : 640 пикселейВысота : 360 пикселейСоотношение сторон : 16:9Режим частоты кадров : ПеременныйЧастота кадров : 23,846 кадра/секЧастота кадров в оригинале : 23,976 кадра/секМинимальная частота кадров : 0,343 кадр/секМаксимальная частота кадров : 23,976 кадра/секЦветовое пространство : YUVСубдискретизация насыщенности : 4:2:0Битовая глубина : 8 битТип развёртки : ПрогрессивнаяМетод сжатия : С потерямиБит/(Пиксели*Кадры) : 0.197Размер потока : 328 Мбайт (89%)Библиотека кодирования : XviD 1.2.1 (UTC 2008-12-04)Дата кодирования : UTC 2015-05-10 18:33:20Дата пометки : UTC 2015-05-10 18:33:33

АудиоИдентификатор : 101Формат : AACФормат/Информация : Advanced Audio CodecПрофиль формата : LCИдентификатор кодека : 40Продолжительность : 42 м.Вид битрейта : ПеременныйБитрейт : 128 Кбит/секМаксимальный битрейт : 165 Кбит/секКаналы : 2 каналаРасположение каналов : Front: L RЧастота : 44,1 КГцМетод сжатия : С потерямиРазмер потока : 38,9 Мбайт (11%)Дата кодирования : UTC 2015-05-10 18:33:32Дата пометки : UTC 2015-05-10 18:33:33

Прочее #1Идентификатор : 2Тип : Object descriptionФормат : SystemИдентификатор кодека : 1Продолжительность : 1 с. 0 мс.Дата кодирования : UTC 2015-05-10 18:33:33Дата пометки : UTC 2015-05-10 18:33:33

Прочее #2Идентификатор : 1Тип : Scene descriptionФормат : System CoreИдентификатор кодека : 2Продолжительность : 1 с. 0 мс.Дата кодирования : UTC 2015-05-10 18:33:33Дата пометки : UTC 2015-05-10 18:33:33

ОбщееПолное имя : D:\Фильмы\Сериалы\The Vampire Diaries.S03.2012.WEB-DLRip.MP4.rip by [Asssassin's Creed]\The Vampire Diaries.E06.WEB-DLRip.MP4.rip by [Asssassin's Creed].mp4Формат : MPEG-4Профиль формата : Base Media / Version 2Идентификатор кодека : mp42Размер файла : 365 МбайтПродолжительность : 42 м.Режим общего битрейта : ПеременныйОбщий поток : 1210 Кбит/секДата кодирования : UTC 2015-05-11 15:37:06Дата пометки : UTC 2015-05-11 15:37:06

ВидеоИдентификатор : 201Формат : MPEG-4 VisualПрофиль формата : Advanced [email protected]Параметр BVOP формата : НетПараметр QPel формата : НетПараметр GMC формата : Без точки переходаПараметр матрицы формата : Default (H.263)Идентификатор кодека : 20Продолжительность : 42 м.Вид битрейта : ПеременныйБитрейт : 1081 Кбит/секМаксимальный битрейт : 6603 Кбит/секШирина : 640 пикселейВысота : 360 пикселейСоотношение сторон : 16:9Режим частоты кадров : ПеременныйЧастота кадров : 23,818 кадра/секЧастота кадров в оригинале : 23,976 кадра/секМинимальная частота кадров : 0,282 кадр/секМаксимальная частота кадров : 23,976 кадра/секЦветовое пространство : YUVСубдискретизация насыщенности : 4:2:0Битовая глубина : 8 битТип развёртки : ПрогрессивнаяМетод сжатия : С потерямиБит/(Пиксели*Кадры) : 0.197Размер потока : 326 Мбайт (89%)Библиотека кодирования : XviD 1.2.1 (UTC 2008-12-04)Дата кодирования : UTC 2015-05-11 15:37:06Дата пометки : UTC 2015-05-11 15:37:19

АудиоИдентификатор : 101Формат : AACФормат/Информация : Advanced Audio CodecПрофиль формата : LCИдентификатор кодека : 40Продолжительность : 42 м.Вид битрейта : ПеременныйБитрейт : 128 Кбит/секМаксимальный битрейт : 169 Кбит/секКаналы : 2 каналаРасположение каналов : Front: L RЧастота : 44,1 КГцМетод сжатия : С потерямиРазмер потока : 38,7 Мбайт (11%)Дата кодирования : UTC 2015-05-11 15:37:18Дата пометки : UTC 2015-05-11 15:37:19

Прочее #1Идентификатор : 2Тип : Object descriptionФормат : SystemИдентификатор кодека : 1Продолжительность : 1 с. 0 мс.Дата кодирования : UTC 2015-05-11 15:37:19Дата пометки : UTC 2015-05-11 15:37:19

Прочее #2Идентификатор : 1Тип : Scene descriptionФормат : System CoreИдентификатор кодека : 2Продолжительность : 1 с. 0 мс.Дата кодирования : UTC 2015-05-11 15:37:19Дата пометки : UTC 2015-05-11 15:37:19

ОбщееПолное имя : D:\Фильмы\Сериалы\The Vampire Diaries.S03.2012.WEB-DLRip.MP4.rip by [Asssassin's Creed]\The Vampire Diaries.E07.WEB-DLRip.MP4.rip by [Asssassin's Creed].mp4Формат : MPEG-4Профиль формата : Base Media / Version 2Идентификатор кодека : mp42Размер файла : 369 МбайтПродолжительность : 42 м.Режим общего битрейта : ПеременныйОбщий поток : 1210 Кбит/секДата кодирования : UTC 2015-05-12 18:37:19Дата пометки : UTC 2015-05-12 18:37:19

ВидеоИдентификатор : 201Формат : MPEG-4 VisualПрофиль формата : Advanced [email protected]Параметр BVOP формата : НетПараметр QPel формата : НетПараметр GMC формата : Без точки переходаПараметр матрицы формата : Default (H.263)Идентификатор кодека : 20Продолжительность : 42 м.Вид битрейта : ПеременныйБитрейт : 1081 Кбит/секМаксимальный битрейт : 11,2 Мбит/секШирина : 640 пикселейВысота : 360 пикселейСоотношение сторон : 16:9Режим частоты кадров : ПеременныйЧастота кадров : 23,792 кадра/секЧастота кадров в оригинале : 23,976 кадра/секМинимальная частота кадров : 0,311 кадр/секМаксимальная частота кадров : 23,976 кадра/секЦветовое пространство : YUVСубдискретизация насыщенности : 4:2:0Битовая глубина : 8 битТип развёртки : ПрогрессивнаяМетод сжатия : С потерямиБит/(Пиксели*Кадры) : 0.197Размер потока : 329 Мбайт (89%)Библиотека кодирования : XviD 1.2.1 (UTC 2008-12-04)Дата кодирования : UTC 2015-05-12 18:37:19Дата пометки : UTC 2015-05-12 18:37:32

АудиоИдентификатор : 101Формат : AACФормат/Информация : Advanced Audio CodecПрофиль формата : LCИдентификатор кодека : 40Продолжительность : 42 м.Вид битрейта : ПеременныйБитрейт : 128 Кбит/секМаксимальный битрейт : 166 Кбит/секКаналы : 2 каналаРасположение каналов : Front: L RЧастота : 44,1 КГцМетод сжатия : С потерямиРазмер потока : 39,0 Мбайт (11%)Дата кодирования : UTC 2015-05-12 18:37:31Дата пометки : UTC 2015-05-12 18:37:32

Прочее #1Идентификатор : 2Тип : Object descriptionФормат : SystemИдентификатор кодека : 1Продолжительность : 1 с. 0 мс.Дата кодирования : UTC 2015-05-12 18:37:32Дата пометки : UTC 2015-05-12 18:37:32

Прочее #2Идентификатор : 1Тип : Scene descriptionФормат : System CoreИдентификатор кодека : 2Продолжительность : 1 с. 0 мс.Дата кодирования : UTC 2015-05-12 18:37:32Дата пометки : UTC 2015-05-12 18:37:32

ОбщееПолное имя : D:\Фильмы\Сериалы\The Vampire Diaries.S03.2012.WEB-DLRip.MP4.rip by [Asssassin's Creed]\The Vampire Diaries.E08.WEB-DLRip.MP4.rip by [Asssassin's Creed].mp4Формат : MPEG-4Профиль формата : Base Media / Version 2Идентификатор кодека : mp42Размер файла : 369 МбайтПродолжительность : 42 м.Режим общего битрейта : ПеременныйОбщий поток : 1210 Кбит/секДата кодирования : UTC 2015-05-13 11:07:46Дата пометки : UTC 2015-05-13 11:07:46

ВидеоИдентификатор : 201Формат : MPEG-4 VisualПрофиль формата : Advanced [email protected]Параметр BVOP формата : НетПараметр QPel формата : НетПараметр GMC формата : Без точки переходаПараметр матрицы формата : Default (H.263)Идентификатор кодека : 20Продолжительность : 42 м.Вид битрейта : ПеременныйБитрейт : 1080 Кбит/секМаксимальный битрейт : 6261 Кбит/секШирина : 640 пикселейВысота : 360 пикселейСоотношение сторон : 16:9Режим частоты кадров : ПеременныйЧастота кадров : 23,774 кадра/секЧастота кадров в оригинале : 23,976 кадра/секМинимальная частота кадров : 0,333 кадр/секМаксимальная частота кадров : 23,976 кадра/секЦветовое пространство : YUVСубдискретизация насыщенности : 4:2:0Битовая глубина : 8 битТип развёртки : ПрогрессивнаяМетод сжатия : С потерямиБит/(Пиксели*Кадры) : 0.197Размер потока : 329 Мбайт (89%)Библиотека кодирования : XviD 1.2.1 (UTC 2008-12-04)Дата кодирования : UTC 2015-05-13 11:07:46Дата пометки : UTC 2015-05-13 11:08:00

АудиоИдентификатор : 101Формат : AACФормат/Информация : Advanced Audio CodecПрофиль формата : LCИдентификатор кодека : 40Продолжительность : 42 м.Вид битрейта : ПеременныйБитрейт : 128 Кбит/секМаксимальный битрейт : 164 Кбит/секКаналы : 2 каналаРасположение каналов : Front: L RЧастота : 48,0 КГцМетод сжатия : С потерямиРазмер потока : 39,0 Мбайт (11%)Дата кодирования : UTC 2015-05-13 11:07:59Дата пометки : UTC 2015-05-13 11:08:00

Прочее #1Идентификатор : 2Тип : Object descriptionФормат : SystemИдентификатор кодека : 1Продолжительность : 1 с. 0 мс.Дата кодирования : UTC 2015-05-13 11:08:00Дата пометки : UTC 2015-05-13 11:08:00

Прочее #2Идентификатор : 1Тип : Scene descriptionФормат : System CoreИдентификатор кодека : 2Продолжительность : 1 с. 0 мс.Дата кодирования : UTC 2015-05-13 11:08:00Дата пометки : UTC 2015-05-13 11:08:00

ОбщееПолное имя : D:\Фильмы\Сериалы\The Vampire Diaries.S03.2012.WEB-DLRip.MP4.rip by [Asssassin's Creed]\The Vampire Diaries.E09.WEB-DLRip.MP4.rip by [Asssassin's Creed].mp4Формат : MPEG-4Профиль формата : Base Media / Version 2Идентификатор кодека : mp42Размер файла : 362 МбайтПродолжительность : 41 м.Режим общего битрейта : ПеременныйОбщий поток : 1210 Кбит/секДата кодирования : UTC 2015-05-13 20:49:28Дата пометки : UTC 2015-05-13 20:49:28

ВидеоИдентификатор : 201Формат : MPEG-4 VisualПрофиль формата : Advanced [email protected]Параметр BVOP формата : НетПараметр QPel формата : НетПараметр GMC формата : Без точки переходаПараметр матрицы формата : Default (H.263)Идентификатор кодека : 20Продолжительность : 41 м.Вид битрейта : ПеременныйБитрейт : 1080 Кбит/секМаксимальный битрейт : 7315 Кбит/секШирина : 640 пикселейВысота : 360 пикселейСоотношение сторон : 16:9Режим частоты кадров : ПеременныйЧастота кадров : 23,706 кадра/секЧастота кадров в оригинале : 23,976 кадра/секМинимальная частота кадров : 0,250 кадр/секМаксимальная частота кадров : 23,976 кадра/секЦветовое пространство : YUVСубдискретизация насыщенности : 4:2:0Битовая глубина : 8 битТип развёртки : ПрогрессивнаяМетод сжатия : С потерямиБит/(Пиксели*Кадры) : 0.198Размер потока : 323 Мбайт (89%)Библиотека кодирования : XviD 1.2.1 (UTC 2008-12-04)Дата кодирования : UTC 2015-05-13 20:49:28Дата пометки : UTC 2015-05-13 20:49:42

АудиоИдентификатор : 101Формат : AACФормат/Информация : Advanced Audio CodecПрофиль формата : LCИдентификатор кодека : 40Продолжительность : 41 м.Вид битрейта : ПеременныйБитрейт : 128 Кбит/секМаксимальный битрейт : 207 Кбит/секКаналы : 2 каналаРасположение каналов : Front: L RЧастота : 44,1 КГцМетод сжатия : С потерямиРазмер потока : 38,3 Мбайт (11%)Дата кодирования : UTC 2015-05-13 20:49:41Дата пометки : UTC 2015-05-13 20:49:42

Прочее #1Идентификатор : 2Тип : Object descriptionФормат : SystemИдентификатор кодека : 1Продолжительность : 1 с. 0 мс.Дата кодирования : UTC 2015-05-13 20:49:42Дата пометки : UTC 2015-05-13 20:49:42

Прочее #2Идентификатор : 1Тип : Scene descriptionФормат : System CoreИдентификатор кодека : 2Продолжительность : 1 с. 0 мс.Дата кодирования : UTC 2015-05-13 20:49:42Дата пометки : UTC 2015-05-13 20:49:42

ОбщееПолное имя : D:\Фильмы\Сериалы\The Vampire Diaries.S03.2012.WEB-DLRip.MP4.rip by [Asssassin's Creed]\The Vampire Diaries.E10.WEB-DLRip.MP4.rip by [Asssassin's Creed].mp4Формат : MPEG-4Профиль формата : Base Media / Version 2Идентификатор кодека : mp42Размер файла : 369 МбайтПродолжительность : 42 м.Режим общего битрейта : ПеременныйОбщий поток : 1210 Кбит/секДата кодирования : UTC 2015-05-15 19:54:50Дата пометки : UTC 2015-05-15 19:54:50

ВидеоИдентификатор : 201Формат : MPEG-4 VisualПрофиль формата : Advanced [email protected]Параметр BVOP формата : НетПараметр QPel формата : НетПараметр GMC формата : Без точки переходаПараметр матрицы формата : Default (H.263)Идентификатор кодека : 20Продолжительность : 42 м.Вид битрейта : ПеременныйБитрейт : 1081 Кбит/секМаксимальный битрейт : 13,4 Мбит/секШирина : 640 пикселейВысота : 360 пикселейСоотношение сторон : 16:9Режим частоты кадров : ПеременныйЧастота кадров : 23,728 кадра/секЧастота кадров в оригинале : 23,976 кадра/секМинимальная частота кадров : 0,250 кадр/секМаксимальная частота кадров : 23,976 кадра/секЦветовое пространство : YUVСубдискретизация насыщенности : 4:2:0Битовая глубина : 8 битТип развёртки : ПрогрессивнаяМетод сжатия : С потерямиБит/(Пиксели*Кадры) : 0.198Размер потока : 329 Мбайт (89%)Библиотека кодирования : XviD 1.2.1 (UTC 2008-12-04)Дата кодирования : UTC 2015-05-15 19:54:50Дата пометки : UTC 2015-05-15 19:55:06

АудиоИдентификатор : 101Формат : AACФормат/Информация : Advanced Audio CodecПрофиль формата : LCИдентификатор кодека : 40Продолжительность : 42 м.Вид битрейта : ПеременныйБитрейт : 128 Кбит/секМаксимальный битрейт : 167 Кбит/секКаналы : 2 каналаРасположение каналов : Front: L RЧастота : 48,0 КГцМетод сжатия : С потерямиРазмер потока : 39,1 Мбайт (11%)Дата кодирования : UTC 2015-05-15 19:55:05Дата пометки : UTC 2015-05-15 19:55:06

Прочее #1Идентификатор : 2Тип : Object descriptionФормат : SystemИдентификатор кодека : 1Продолжительность : 1 с. 0 мс.Дата кодирования : UTC 2015-05-15 19:55:06Дата пометки : UTC 2015-05-15 19:55:06

Прочее #2Идентификатор : 1Тип : Scene descriptionФормат : System CoreИдентификатор кодека : 2Продолжительность : 1 с. 0 мс.Дата кодирования : UTC 2015-05-15 19:55:06Дата пометки : UTC 2015-05-15 19:55:06

ОбщееПолное имя : D:\Фильмы\Сериалы\The Vampire Diaries.S03.2012.WEB-DLRip.MP4.rip by [Asssassin's Creed]\The Vampire Diaries.E11.WEB-DLRip.MP4.rip by [Asssassin's Creed].mp4Формат : MPEG-4Профиль формата : Base Media / Version 2Идентификатор кодека : mp42Размер файла : 368 МбайтПродолжительность : 42 м.Режим общего битрейта : ПеременныйОбщий поток : 1210 Кбит/секДата кодирования : UTC 2015-05-16 10:46:40Дата пометки : UTC 2015-05-16 10:46:40

ВидеоИдентификатор : 201Формат : MPEG-4 VisualПрофиль формата : Advanced [email protected]Параметр BVOP формата : НетПараметр QPel формата : НетПараметр GMC формата : Без точки переходаПараметр матрицы формата : Default (H.263)Идентификатор кодека : 20Продолжительность : 42 м.Вид битрейта : ПеременныйБитрейт : 1081 Кбит/секМаксимальный битрейт : 6912 Кбит/секШирина : 640 пикселейВысота : 360 пикселейСоотношение сторон : 16:9Режим частоты кадров : ПеременныйЧастота кадров : 23,780 кадра/секЧастота кадров в оригинале : 23,976 кадра/секМинимальная частота кадров : 0,250 кадр/секМаксимальная частота кадров : 23,976 кадра/секЦветовое пространство : YUVСубдискретизация насыщенности : 4:2:0Битовая глубина : 8 битТип развёртки : ПрогрессивнаяМетод сжатия : С потерямиБит/(Пиксели*Кадры) : 0.197Размер потока : 329 Мбайт (89%)Библиотека кодирования : XviD 1.2.1 (UTC 2008-12-04)Дата кодирования : UTC 2015-05-16 10:46:40Дата пометки : UTC 2015-05-16 10:46:53

АудиоИдентификатор : 101Формат : AACФормат/Информация : Advanced Audio CodecПрофиль формата : LCИдентификатор кодека : 40Продолжительность : 42 м.Вид битрейта : ПеременныйБитрейт : 128 Кбит/секМаксимальный битрейт : 180 Кбит/секКаналы : 2 каналаРасположение каналов : Front: L RЧастота : 44,1 КГцМетод сжатия : С потерямиРазмер потока : 38,9 Мбайт (11%)Дата кодирования : UTC 2015-05-16 10:46:52Дата пометки : UTC 2015-05-16 10:46:53

Прочее #1Идентификатор : 2Тип : Object descriptionФормат : SystemИдентификатор кодека : 1Продолжительность : 1 с. 0 мс.Дата кодирования : UTC 2015-05-16 10:46:53Дата пометки : UTC 2015-05-16 10:46:53

Прочее #2Идентификатор : 1Тип : Scene descriptionФормат : System CoreИдентификатор кодека : 2Продолжительность : 1 с. 0 мс.Дата кодирования : UTC 2015-05-16 10:46:53Дата пометки : UTC 2015-05-16 10:46:53

ОбщееПолное имя : D:\Фильмы\Сериалы\The Vampire Diaries.S03.2012.WEB-DLRip.MP4.rip by [Asssassin's Creed]\The Vampire Diaries.E12.WEB-DLRip.MP4.rip by [Asssassin's Creed].mp4Формат : MPEG-4Профиль формата : Base Media / Version 2Идентификатор кодека : mp42Размер файла : 370 МбайтПродолжительность : 42 м.Режим общего битрейта : ПеременныйОбщий поток : 1211 Кбит/секДата кодирования : UTC 2015-05-16 13:00:41Дата пометки : UTC 2015-05-16 13:00:41

ВидеоИдентификатор : 201Формат : MPEG-4 VisualПрофиль формата : Advanced [email protected]Параметр BVOP формата : НетПараметр QPel формата : НетПараметр GMC формата : Без точки переходаПараметр матрицы формата : Default (H.263)Идентификатор кодека : 20Продолжительность : 42 м.Вид битрейта : ПеременныйБитрейт : 1081 Кбит/секМаксимальный битрейт : 11,7 Мбит/секШирина : 640 пикселейВысота : 360 пикселейСоотношение сторон : 16:9Режим частоты кадров : ПеременныйЧастота кадров : 23,645 кадра/секЧастота кадров в оригинале : 23,976 кадра/секМинимальная частота кадров : 0,203 кадр/секМаксимальная частота кадров : 23,976 кадра/секЦветовое пространство : YUVСубдискретизация насыщенности : 4:2:0Битовая глубина : 8 битТип развёртки : ПрогрессивнаяМетод сжатия : С потерямиБит/(Пиксели*Кадры) : 0.198Размер потока : 330 Мбайт (89%)Библиотека кодирования : XviD 1.2.1 (UTC 2008-12-04)Дата кодирования : UTC 2015-05-16 13:00:41Дата пометки : UTC 2015-05-16 13:00:53

АудиоИдентификатор : 101Формат : AACФормат/Информация : Advanced Audio CodecПрофиль формата : LCИдентификатор кодека : 40Продолжительность : 42 м.Вид битрейта : ПеременныйБитрейт : 128 Кбит/секМаксимальный битрейт : 155 Кбит/секКаналы : 2 каналаРасположение каналов : Front: L RЧастота : 44,1 КГцМетод сжатия : С потерямиРазмер потока : 39,0 Мбайт (11%)Дата кодирования : UTC 2015-05-16 13:00:53Дата пометки : UTC 2015-05-16 13:00:53

Прочее #1Идентификатор : 2Тип : Object descriptionФормат : SystemИдентификатор кодека : 1Продолжительность : 1 с. 0 мс.Дата кодирования : UTC 2015-05-16 13:00:53Дата пометки : UTC 2015-05-16 13:00:53

Прочее #2Идентификатор : 1Тип : Scene descriptionФормат : System CoreИдентификатор кодека : 2Продолжительность : 1 с. 0 мс.Дата кодирования : UTC 2015-05-16 13:00:53Дата пометки : UTC 2015-05-16 13:00:53

ОбщееПолное имя : D:\Фильмы\Сериалы\The Vampire Diaries.S03.2012.WEB-DLRip.MP4.rip by [Asssassin's Creed]\The Vampire Diaries.E13.WEB-DLRip.MP4.rip by [Asssassin's Creed].mp4Формат : MPEG-4Профиль формата : Base Media / Version 2Идентификатор кодека : mp42Размер файла : 314 МбайтПродолжительность : 42 м.Режим общего битрейта : ПеременныйОбщий поток : 1040 Кбит/секДата кодирования : UTC 2015-05-19 19:13:08Дата пометки : UTC 2015-05-19 19:13:08

ВидеоИдентификатор : 201Формат : MPEG-4 VisualПрофиль формата : [email protected]Параметр BVOP формата : НетПараметр QPel формата : НетПараметр GMC формата : Без точки переходаПараметр матрицы формата : Default (H.263)Идентификатор кодека : 20Продолжительность : 42 м.Вид битрейта : ПеременныйБитрейт : 909 Кбит/секМаксимальный битрейт : 6361 Кбит/секШирина : 640 пикселейВысота : 360 пикселейСоотношение сторон : 16:9Режим частоты кадров : ПостоянныйЧастота кадров : 23,976 кадра/секЦветовое пространство : YUVСубдискретизация насыщенности : 4:2:0Битовая глубина : 8 битТип развёртки : ПрогрессивнаяМетод сжатия : С потерямиБит/(Пиксели*Кадры) : 0.165Размер потока : 274 Мбайт (87%)Библиотека кодирования : Lavc53.33.0Дата кодирования : UTC 2015-05-19 19:13:08Дата пометки : UTC 2015-05-19 19:13:12

АудиоИдентификатор : 101Формат : AACФормат/Информация : Advanced Audio CodecПрофиль формата : LCИдентификатор кодека : 40Продолжительность : 42 м.Вид битрейта : ПеременныйБитрейт : 128 Кбит/секМаксимальный битрейт : 155 Кбит/секКаналы : 2 каналаРасположение каналов : Front: L RЧастота : 44,1 КГцМетод сжатия : С потерямиРазмер потока : 38,6 Мбайт (12%)Дата кодирования : UTC 2015-05-19 19:13:11Дата пометки : UTC 2015-05-19 19:13:12

Прочее #1Идентификатор : 2Тип : Object descriptionФормат : SystemИдентификатор кодека : 1Продолжительность : 1 с. 0 мс.Дата кодирования : UTC 2015-05-19 19:13:12Дата пометки : UTC 2015-05-19 19:13:12

Прочее #2Идентификатор : 1Тип : Scene descriptionФормат : System CoreИдентификатор кодека : 2Продолжительность : 1 с. 0 мс.Дата кодирования : UTC 2015-05-19 19:13:12Дата пометки : UTC 2015-05-19 19:13:12

ОбщееПолное имя : D:\Фильмы\Сериалы\The Vampire Diaries.S03.2012.WEB-DLRip.MP4.rip by [Asssassin's Creed]\The Vampire Diaries.E14.WEB-DLRip.MP4.rip by [Asssassin's Creed].mp4Формат : MPEG-4Профиль формата : Base Media / Version 2Идентификатор кодека : mp42Размер файла : 369 МбайтПродолжительность : 42 м.Режим общего битрейта : ПеременныйОбщий поток : 1210 Кбит/секДата кодирования : UTC 2015-05-21 08:49:08Дата пометки : UTC 2015-05-21 08:49:08

ВидеоИдентификатор : 201Формат : MPEG-4 VisualПрофиль формата : [email protected]Параметр BVOP формата : НетПараметр QPel формата : НетПараметр GMC формата : Без точки переходаПараметр матрицы формата : Default (H.263)Идентификатор кодека : 20Продолжительность : 42 м.Вид битрейта : ПеременныйБитрейт : 1080 Кбит/секМаксимальный битрейт : 4869 Кбит/секШирина : 640 пикселейВысота : 360 пикселейСоотношение сторон : 16:9Режим частоты кадров : ПостоянныйЧастота кадров : 23,976 кадра/секЦветовое пространство : YUVСубдискретизация насыщенности : 4:2:0Битовая глубина : 8 битТип развёртки : ПрогрессивнаяМетод сжатия : С потерямиБит/(Пиксели*Кадры) : 0.196Размер потока : 330 Мбайт (89%)Библиотека кодирования : Lavc53.33.0Дата кодирования : UTC 2015-05-21 08:49:08Дата пометки : UTC 2015-05-21 08:49:16

АудиоИдентификатор : 101Формат : AACФормат/Информация : Advanced Audio CodecПрофиль формата : LCИдентификатор кодека : 40Продолжительность : 42 м.Вид битрейта : ПеременныйБитрейт : 128 Кбит/секМаксимальный битрейт : 156 Кбит/секКаналы : 2 каналаРасположение каналов : Front: L RЧастота : 44,1 КГцМетод сжатия : С потерямиРазмер потока : 39,0 Мбайт (11%)Дата кодирования : UTC 2015-05-21 08:49:14Дата пометки : UTC 2015-05-21 08:49:16

Прочее #1Идентификатор : 2Тип : Object descriptionФормат : SystemИдентификатор кодека : 1Продолжительность : 1 с. 0 мс.Дата кодирования : UTC 2015-05-21 08:49:16Дата пометки : UTC 2015-05-21 08:49:16

Прочее #2Идентификатор : 1Тип : Scene descriptionФормат : System CoreИдентификатор кодека : 2Продолжительность : 1 с. 0 мс.Дата кодирования : UTC 2015-05-21 08:49:16Дата пометки : UTC 2015-05-21 08:49:16

ОбщееПолное имя : D:\Фильмы\Сериалы\The Vampire Diaries.S03.2012.WEB-DLRip.MP4.rip by [Asssassin's Creed]\The Vampire Diaries.E15.WEB-DLRip.MP4.rip by [Asssassin's Creed].mp4Формат : MPEG-4Профиль формата : Base Media / Version 2Идентификатор кодека : mp42Размер файла : 357 МбайтПродолжительность : 42 м.Режим общего битрейта : ПеременныйОбщий поток : 1171 Кбит/секДата кодирования : UTC 2015-05-21 18:33:47Дата пометки : UTC 2015-05-21 18:33:47

ВидеоИдентификатор : 201Формат : MPEG-4 VisualПрофиль формата : [email protected]Параметр BVOP формата : НетПараметр QPel формата : НетПараметр GMC формата : Без точки переходаПараметр матрицы формата : Default (H.263)Идентификатор кодека : 20Продолжительность : 42 м.Вид битрейта : ПеременныйБитрейт : 1040 Кбит/секМаксимальный битрейт : 6301 Кбит/секШирина : 640 пикселейВысота : 360 пикселейСоотношение сторон : 16:9Режим частоты кадров : ПостоянныйЧастота кадров : 23,976 кадра/секЦветовое пространство : YUVСубдискретизация насыщенности : 4:2:0Битовая глубина : 8 битТип развёртки : ПрогрессивнаяМетод сжатия : С потерямиБит/(Пиксели*Кадры) : 0.188Размер потока : 318 Мбайт (89%)Библиотека кодирования : Lavc53.33.0Дата кодирования : UTC 2015-05-21 18:33:47Дата пометки : UTC 2015-05-21 18:33:53

АудиоИдентификатор : 101Формат : AACФормат/Информация : Advanced Audio CodecПрофиль формата : LCИдентификатор кодека : 40Продолжительность : 42 м.Вид битрейта : ПеременныйБитрейт : 128 Кбит/секМаксимальный битрейт : 153 Кбит/секКаналы : 2 каналаРасположение каналов : Front: L RЧастота : 48,0 КГцМетод сжатия : С потерямиРазмер потока : 39,0 Мбайт (11%)Дата кодирования : UTC 2015-05-21 18:33:52Дата пометки : UTC 2015-05-21 18:33:53

Прочее #1Идентификатор : 2Тип : Object descriptionФормат : SystemИдентификатор кодека : 1Продолжительность : 1 с. 0 мс.Дата кодирования : UTC 2015-05-21 18:33:53Дата пометки : UTC 2015-05-21 18:33:53

Прочее #2Идентификатор : 1Тип : Scene descriptionФормат : System CoreИдентификатор кодека : 2Продолжительность : 1 с. 0 мс.Дата кодирования : UTC 2015-05-21 18:33:53Дата пометки : UTC 2015-05-21 18:33:53

ОбщееПолное имя : D:\Фильмы\Сериалы\The Vampire Diaries.S03.2012.WEB-DLRip.MP4.rip by [Asssassin's Creed]\The Vampire Diaries.E16.WEB-DLRip.MP4.rip by [Asssassin's Creed].mp4Формат : MPEG-4Профиль формата : Base Media / Version 2Идентификатор кодека : mp42Размер файла : 361 МбайтПродолжительность : 41 м.Режим общего битрейта : ПеременныйОбщий поток : 1211 Кбит/секДата кодирования : UTC 2015-05-21 20:04:52Дата пометки : UTC 2015-05-21 20:04:52

ВидеоИдентификатор : 201Формат : MPEG-4 VisualПрофиль формата : [email protected]Параметр BVOP формата : НетПараметр QPel формата : НетПараметр GMC формата : Без точки переходаПараметр матрицы формата : Default (H.263)Идентификатор кодека : 20Продолжительность : 41 м.Вид битрейта : ПеременныйБитрейт : 1080 Кбит/секМаксимальный битрейт : 3322 Кбит/секШирина : 640 пикселейВысота : 360 пикселейСоотношение сторон : 16:9Режим частоты кадров : ПостоянныйЧастота кадров : 23,976 кадра/секЦветовое пространство : YUVСубдискретизация насыщенности : 4:2:0Битовая глубина : 8 битТип развёртки : ПрогрессивнаяМетод сжатия : С потерямиБит/(Пиксели*Кадры) : 0.196Размер потока : 322 Мбайт (89%)Библиотека кодирования : Lavc53.33.0Дата кодирования : UTC 2015-05-21 20:04:52Дата пометки : UTC 2015-05-21 20:04:57

АудиоИдентификатор : 101Формат : AACФормат/Информация : Advanced Audio CodecПрофиль формата : LCИдентификатор кодека : 40Продолжительность : 41 м.Вид битрейта : ПеременныйБитрейт : 128 Кбит/секМаксимальный битрейт : 150 Кбит/секКаналы : 2 каналаРасположение каналов : Front: L RЧастота : 48,0 КГцМетод сжатия : С потерямиРазмер потока : 38,1 Мбайт (11%)Дата кодирования : UTC 2015-05-21 20:04:56Дата пометки : UTC 2015-05-21 20:04:57

Прочее #1Идентификатор : 2Тип : Object descriptionФормат : SystemИдентификатор кодека : 1Продолжительность : 1 с. 0 мс.Дата кодирования : UTC 2015-05-21 20:04:57Дата пометки : UTC 2015-05-21 20:04:57

Прочее #2Идентификатор : 1Тип : Scene descriptionФормат : System CoreИдентификатор кодека : 2Продолжительность : 1 с. 0 мс.Дата кодирования : UTC 2015-05-21 20:04:57Дата пометки : UTC 2015-05-21 20:04:57

ОбщееПолное имя : D:\Фильмы\Сериалы\The Vampire Diaries.S03.2012.WEB-DLRip.MP4.rip by [Asssassin's Creed]\The Vampire Diaries.E17.WEB-DLRip.MP4.rip by [Asssassin's Creed].mp4Формат : MPEG-4Профиль формата : Base Media / Version 2Идентификатор кодека : mp42Размер файла : 369 МбайтПродолжительность : 42 м.Режим общего битрейта : ПеременныйОбщий поток : 1210 Кбит/секДата кодирования : UTC 2015-05-22 07:21:03Дата пометки : UTC 2015-05-22 07:21:03

ВидеоИдентификатор : 201Формат : MPEG-4 VisualПрофиль формата : [email protected]Параметр BVOP формата : НетПараметр QPel формата : НетПараметр GMC формата : Без точки переходаПараметр матрицы формата : Default (H.263)Идентификатор кодека : 20Продолжительность : 42 м.Вид битрейта : ПеременныйБитрейт : 1080 Кбит/секМаксимальный битрейт : 3732 Кбит/секШирина : 640 пикселейВысота : 360 пикселейСоотношение сторон : 16:9Режим частоты кадров : ПостоянныйЧастота кадров : 23,976 кадра/секЦветовое пространство : YUVСубдискретизация насыщенности : 4:2:0Битовая глубина : 8 битТип развёртки : ПрогрессивнаяМетод сжатия : С потерямиБит/(Пиксели*Кадры) : 0.196Размер потока : 329 Мбайт (89%)Библиотека кодирования : Lavc53.33.0Дата кодирования : UTC 2015-05-22 07:21:03Дата пометки : UTC 2015-05-22 07:21:08

АудиоИдентификатор : 101Формат : AACФормат/Информация : Advanced Audio CodecПрофиль формата : LCИдентификатор кодека : 40Продолжительность : 42 м.Вид битрейта : ПеременныйБитрейт : 128 Кбит/секМаксимальный битрейт : 154 Кбит/секКаналы : 2 каналаРасположение каналов : Front: L RЧастота : 44,1 КГцМетод сжатия : С потерямиРазмер потока : 39,0 Мбайт (11%)Дата кодирования : UTC 2015-05-22 07:21:07Дата пометки : UTC 2015-05-22 07:21:08

Прочее #1Идентификатор : 2Тип : Object descriptionФормат : SystemИдентификатор кодека : 1Продолжительность : 1 с. 0 мс.Дата кодирования : UTC 2015-05-22 07:21:08Дата пометки : UTC 2015-05-22 07:21:08

Прочее #2Идентификатор : 1Тип : Scene descriptionФормат : System CoreИдентификатор кодека : 2Продолжительность : 1 с. 0 мс.Дата кодирования : UTC 2015-05-22 07:21:08Дата пометки : UTC 2015-05-22 07:21:08

ОбщееПолное имя : D:\Фильмы\Сериалы\The Vampire Diaries.S03.2012.WEB-DLRip.MP4.rip by [Asssassin's Creed]\The Vampire Diaries.E18.WEB-DLRip.MP4.rip by [Asssassin's Creed].mp4Формат : MPEG-4Профиль формата : Base Media / Version 2Идентификатор кодека : mp42Размер файла : 360 МбайтПродолжительность : 41 м.Режим общего битрейта : ПеременныйОбщий поток : 1211 Кбит/секДата кодирования : UTC 2015-05-22 16:56:22Дата пометки : UTC 2015-05-22 16:56:22

ВидеоИдентификатор : 201Формат : MPEG-4 VisualПрофиль формата : [email protected]Параметр BVOP формата : НетПараметр QPel формата : НетПараметр GMC формата : Без точки переходаПараметр матрицы формата : Default (H.263)Идентификатор кодека : 20Продолжительность : 41 м.Вид битрейта : ПеременныйБитрейт : 1080 Кбит/секМаксимальный битрейт : 3409 Кбит/секШирина : 640 пикселейВысота : 360 пикселейСоотношение сторон : 16:9Режим частоты кадров : ПостоянныйЧастота кадров : 23,976 кадра/секЦветовое пространство : YUVСубдискретизация насыщенности : 4:2:0Битовая глубина : 8 битТип развёртки : ПрогрессивнаяМетод сжатия : С потерямиБит/(Пиксели*Кадры) : 0.196Размер потока : 321 Мбайт (89%)Библиотека кодирования : Lavc53.33.0Дата кодирования : UTC 2015-05-22 16:56:22Дата пометки : UTC 2015-05-22 16:56:27

АудиоИдентификатор : 101Формат : AACФормат/Информация : Advanced Audio CodecПрофиль формата : LCИдентификатор кодека : 40Продолжительность : 41 м.Вид битрейта : ПеременныйБитрейт : 128 Кбит/секМаксимальный битрейт : 163 Кбит/секКаналы : 2 каналаРасположение каналов : Front: L RЧастота : 48,0 КГцМетод сжатия : С потерямиРазмер потока : 37,9 Мбайт (11%)Дата кодирования : UTC 2015-05-22 16:56:26Дата пометки : UTC 2015-05-22 16:56:27

Прочее #1Идентификатор : 2Тип : Object descriptionФормат : SystemИдентификатор кодека : 1Продолжительность : 1 с. 0 мс.Дата кодирования : UTC 2015-05-22 16:56:27Дата пометки : UTC 2015-05-22 16:56:27

Прочее #2Идентификатор : 1Тип : Scene descriptionФормат : System CoreИдентификатор кодека : 2Продолжительность : 1 с. 0 мс.Дата кодирования : UTC 2015-05-22 16:56:27Дата пометки : UTC 2015-05-22 16:56:27

ОбщееПолное имя : D:\Фильмы\Сериалы\The Vampire Diaries.S03.2012.WEB-DLRip.MP4.rip by [Asssassin's Creed]\The Vampire Diaries.E19.WEB-DLRip.MP4.rip by [Asssassin's Creed].mp4Формат : MPEG-4Профиль формата : Base Media / Version 2Идентификатор кодека : mp42Размер файла : 369 МбайтПродолжительность : 42 м.Режим общего битрейта : ПеременныйОбщий поток : 1210 Кбит/секДата кодирования : UTC 2015-05-22 20:30:50Дата пометки : UTC 2015-05-22 20:30:50

ВидеоИдентификатор : 201Формат : MPEG-4 VisualПрофиль формата : [email protected]Параметр BVOP формата : НетПараметр QPel формата : НетПараметр GMC формата : Без точки переходаПараметр матрицы формата : Default (H.263)Идентификатор кодека : 20Продолжительность : 42 м.Вид битрейта : ПеременныйБитрейт : 1080 Кбит/секМаксимальный битрейт : 7845 Кбит/секШирина : 640 пикселейВысота : 360 пикселейСоотношение сторон : 16:9Режим частоты кадров : ПостоянныйЧастота кадров : 23,976 кадра/секЦветовое пространство : YUVСубдискретизация насыщенности : 4:2:0Битовая глубина : 8 битТип развёртки : ПрогрессивнаяМетод сжатия : С потерямиБит/(Пиксели*Кадры) : 0.196Размер потока : 329 Мбайт (89%)Библиотека кодирования : Lavc53.33.0Дата кодирования : UTC 2015-05-22 20:30:50Дата пометки : UTC 2015-05-22 20:30:55

АудиоИдентификатор : 101Формат : AACФормат/Информация : Advanced Audio CodecПрофиль формата : LCИдентификатор кодека : 40Продолжительность : 42 м.Вид битрейта : ПеременныйБитрейт : 128 Кбит/секМаксимальный битрейт : 150 Кбит/секКаналы : 2 каналаРасположение каналов : Front: L RЧастота : 48,0 КГцМетод сжатия : С потерямиРазмер потока : 38,9 Мбайт (11%)Дата кодирования : UTC 2015-05-22 20:30:54Дата пометки : UTC 2015-05-22 20:30:55

Прочее #1Идентификатор : 2Тип : Object descriptionФормат : SystemИдентификатор кодека : 1Продолжительность : 1 с. 0 мс.Дата кодирования : UTC 2015-05-22 20:30:55Дата пометки : UTC 2015-05-22 20:30:55

Прочее #2Идентификатор : 1Тип : Scene descriptionФормат : System CoreИдентификатор кодека : 2Продолжительность : 1 с. 0 мс.Дата кодирования : UTC 2015-05-22 20:30:55Дата пометки : UTC 2015-05-22 20:30:55

ОбщееПолное имя : D:\Фильмы\Сериалы\The Vampire Diaries.S03.2012.WEB-DLRip.MP4.rip by [Asssassin's Creed]\The Vampire Diaries.E20.WEB-DLRip.MP4.rip by [Asssassin's Creed].mp4Формат : MPEG-4Профиль формата : Base Media / Version 2Идентификатор кодека : mp42Размер файла : 366 МбайтПродолжительность : 42 м.Режим общего битрейта : ПеременныйОбщий поток : 1210 Кбит/секДата кодирования : UTC 2015-05-23 09:12:38Дата пометки : UTC 2015-05-23 09:12:38

ВидеоИдентификатор : 201Формат : MPEG-4 VisualПрофиль формата : [email protected]Параметр BVOP формата : НетПараметр QPel формата : НетПараметр GMC формата : Без точки переходаПараметр матрицы формата : Default (H.263)Идентификатор кодека : 20Продолжительность : 42 м.Вид битрейта : ПеременныйБитрейт : 1080 Кбит/секМаксимальный битрейт : 4178 Кбит/секШирина : 640 пикселейВысота : 360 пикселейСоотношение сторон : 16:9Режим частоты кадров : ПостоянныйЧастота кадров : 23,976 кадра/секЦветовое пространство : YUVСубдискретизация насыщенности : 4:2:0Битовая глубина : 8 битТип развёртки : ПрогрессивнаяМетод сжатия : С потерямиБит/(Пиксели*Кадры) : 0.196Размер потока : 326 Мбайт (89%)Библиотека кодирования : Lavc53.33.0Дата кодирования : UTC 2015-05-23 09:12:38Дата пометки : UTC 2015-05-23 09:12:45

АудиоИдентификатор : 101Формат : AACФормат/Информация : Advanced Audio CodecПрофиль формата : LCИдентификатор кодека : 40Продолжительность : 42 м.Вид битрейта : ПеременныйБитрейт : 128 Кбит/секМаксимальный битрейт : 157 Кбит/секКаналы : 2 каналаРасположение каналов : Front: L RЧастота : 48,0 КГцМетод сжатия : С потерямиРазмер потока : 38,6 Мбайт (11%)Дата кодирования : UTC 2015-05-23 09:12:44Дата пометки : UTC 2015-05-23 09:12:45

Прочее #1Идентификатор : 2Тип : Object descriptionФормат : SystemИдентификатор кодека : 1Продолжительность : 1 с. 0 мс.Дата кодирования : UTC 2015-05-23 09:12:45Дата пометки : UTC 2015-05-23 09:12:45

Прочее #2Идентификатор : 1Тип : Scene descriptionФормат : System CoreИдентификатор кодека : 2Продолжительность : 1 с. 0 мс.Дата кодирования : UTC 2015-05-23 09:12:45Дата пометки : UTC 2015-05-23 09:12:45

ОбщееПолное имя : D:\Фильмы\Сериалы\The Vampire Diaries.S03.2012.WEB-DLRip.MP4.rip by [Asssassin's Creed]\The Vampire Diaries.E21.WEB-DLRip.MP4.rip by [Asssassin's Creed].mp4Формат : MPEG-4Профиль формата : Base Media / Version 2Идентификатор кодека : mp42Размер файла : 363 МбайтПродолжительность : 41 м.Режим общего битрейта : ПеременныйОбщий поток : 1210 Кбит/секДата кодирования : UTC 2015-05-23 11:51:51Дата пометки : UTC 2015-05-23 11:51:51

ВидеоИдентификатор : 201Формат : MPEG-4 VisualПрофиль формата : [email protected]Параметр BVOP формата : НетПараметр QPel формата : НетПараметр GMC формата : Без точки переходаПараметр матрицы формата : Default (H.263)Идентификатор кодека : 20Продолжительность : 41 м.Вид битрейта : ПеременныйБитрейт : 1080 Кбит/секМаксимальный битрейт : 4209 Кбит/секШирина : 640 пикселейВысота : 360 пикселейСоотношение сторон : 16:9Режим частоты кадров : ПостоянныйЧастота кадров : 23,976 кадра/секЦветовое пространство : YUVСубдискретизация насыщенности : 4:2:0Битовая глубина : 8 битТип развёртки : ПрогрессивнаяМетод сжатия : С потерямиБит/(Пиксели*Кадры) : 0.196Размер потока : 324 Мбайт (89%)Библиотека кодирования : Lavc53.33.0Дата кодирования : UTC 2015-05-23 11:51:51Дата пометки : UTC 2015-05-23 11:51:57

АудиоИдентификатор : 101Формат : AACФормат/Информация : Advanced Audio CodecПрофиль формата : LCИдентификатор кодека : 40Продолжительность : 41 м.Вид битрейта : ПеременныйБитрейт : 128 Кбит/секМаксимальный битрейт : 151 Кбит/секКаналы : 2 каналаРасположение каналов : Front: L RЧастота : 48,0 КГцМетод сжатия : С потерямиРазмер потока : 38,3 Мбайт (11%)Дата кодирования : UTC 2015-05-23 11:51:56Дата пометки : UTC 2015-05-23 11:51:57

Прочее #1Идентификатор : 2Тип : Object descriptionФормат : SystemИдентификатор кодека : 1Продолжительность : 1 с. 0 мс.Дата кодирования : UTC 2015-05-23 11:51:57Дата пометки : UTC 2015-05-23 11:51:57

Прочее #2Идентификатор : 1Тип : Scene descriptionФормат : System CoreИдентификатор кодека : 2Продолжительность : 1 с. 0 мс.Дата кодирования : UTC 2015-05-23 11:51:57Дата пометки : UTC 2015-05-23 11:51:57

ОбщееПолное имя : D:\Фильмы\Сериалы\The Vampire Diaries.S03.2012.WEB-DLRip.MP4.rip by [Asssassin's Creed]\The Vampire Diaries.E22.WEB-DLRip.MP4.rip by [Asssassin's Creed].mp4Формат : MPEG-4Профиль формата : Base Media / Version 2Идентификатор кодека : mp42Размер файла : 345 МбайтПродолжительность : 42 м.Режим общего битрейта : ПеременныйОбщий поток : 1131 Кбит/секДата кодирования : UTC 2015-05-23 13:26:49Дата пометки : UTC 2015-05-23 13:26:49

ВидеоИдентификатор : 201Формат : MPEG-4 VisualПрофиль формата : [email protected]Параметр BVOP формата : НетПараметр QPel формата : НетПараметр GMC формата : Без точки переходаПараметр матрицы формата : Default (H.263)Идентификатор кодека : 20Продолжительность : 42 м.Вид битрейта : ПеременныйБитрейт : 1001 Кбит/секМаксимальный битрейт : 6064 Кбит/секШирина : 640 пикселейВысота : 360 пикселейСоотношение сторон : 16:9Режим частоты кадров : ПостоянныйЧастота кадров : 23,976 кадра/секЦветовое пространство : YUVСубдискретизация насыщенности : 4:2:0Битовая глубина : 8 битТип развёртки : ПрогрессивнаяМетод сжатия : С потерямиБит/(Пиксели*Кадры) : 0.181Размер потока : 306 Мбайт (88%)Библиотека кодирования : Lavc53.33.0Дата кодирования : UTC 2015-05-23 13:26:49Дата пометки : UTC 2015-05-23 13:26:55

АудиоИдентификатор : 101Формат : AACФормат/Информация : Advanced Audio CodecПрофиль формата : LCИдентификатор кодека : 40Продолжительность : 42 м.Вид битрейта : ПеременныйБитрейт : 128 Кбит/секМаксимальный битрейт : 161 Кбит/секКаналы : 2 каналаРасположение каналов : Front: L RЧастота : 48,0 КГцМетод сжатия : С потерямиРазмер потока : 39,0 Мбайт (11%)Дата кодирования : UTC 2015-05-23 13:26:53Дата пометки : UTC 2015-05-23 13:26:55

Прочее #1Идентификатор : 2Тип : Object descriptionФормат : SystemИдентификатор кодека : 1Продолжительность : 1 с. 0 мс.Дата кодирования : UTC 2015-05-23 13:26:55Дата пометки : UTC 2015-05-23 13:26:55

Прочее #2Идентификатор : 1Тип : Scene descriptionФормат : System CoreИдентификатор кодека : 2Продолжительность : 1 с. 0 мс.Дата кодирования : UTC 2015-05-23 13:26:55Дата пометки : UTC 2015-05-23 13:26:55


Трекер:  [ 23-Май-2015 18:30 ]

  

Скачать .torrent

Размер .torrent файла 41 KB


Размер: 7.78 GB
Хэш (hash) релиза: f377f145b99028f0ef45e091fdd9c555cd30dfa3

Торренты, похожие на [SERIAL] Дневники вампира Дневники вампира скачать торрент

Форум Название Автор Размер S L Добавлен
Видео (Фильмы/Клипы) ·· [SERIAL] Дневники вампира / The Vampire Diaries / Сезон: 8 / Серии: 1-3 из 16 (Крис Грисмер) [2016, США, ужасы, фэнтези, триллер, драма, мелодрама, детектив, WEB-DLRip] [MP4, 640x] MVO LostFilm Galfimbul 854238505815 MB 0 0 1478671668

09:07

9-Ноя-16

Видео (Фильмы/Клипы) ·· [SERIAL] Дневники вампира / The Vampire Diaries / Сезон: 8 / Серии: 1-2 из 16 (Крис Грисмер) [2016, США, ужасы, фэнтези, триллер, драма, мелодрама, детектив, WEB-DLRip] [MP4, 640x] MVO LostFilm Galfimbul 573316386547 MB 0 0 1477893638

09:00

31-Окт-16

Видео (Фильмы/Клипы) ·· [SERIAL] Дневники вампира / The Vampire Diaries / Сезон: 8 / Серии: 1 из 16 (Крис Грисмер) [2016, США, ужасы, фэнтези, триллер, драма, мелодрама, детектив, WEB-DLRip] [MP4, 640x] MVO LostFilm Galfimbul 286909092274 MB 0 0 1477306990

14:03

24-Окт-16

Видео (Фильмы/Клипы) ·· [SERIAL] Дневники вампира / The Vampire Diaries / Сезон: 7 / Серии: 1-6 из 22 (Маркос Сига) [2015, ужасы, фэнтези, драма, мелодрама, WEB-DLRip] [MP4, 640x] MVO LostFilm Galfimbul 23044734062.15 GB 0 0 1448181396

11:36

22-Ноя-15

Видео (Фильмы/Клипы) ·· [SERIAL] Дневники вампира / The Vampire Diaries / Сезон: 4 / Серии: 1-23 из 23 (Маркос Сига) [2013, ужасы, фэнтези, драма, мелодрама, WEB-DLRip] [MP4, 640x] MVO LostFilm Galfimbul 88466711308.24 GB 0 0 1435440980

00:36

28-Июн-15

Еще никто не оставлял запись к записи скачать торрент [SERIAL] Дневники вампира Дневники вампира . Будь первым!

!Обратная связь