Play Movie | Гордая Мэри / Proud Mary... | Militaryzone.info | MZ | E-Learning | 2018 Review

Скачать через торрент [SERIAL] Стрела Arrow бесплатно русская версия torrent активатор

Статистика раздачи
Размер:  5.71 GB   |    Зарегистрирован:  3 года 1 месяц   |    .torrent скачан:  153 раза   |   
Раздают:  1  
   
загрузка...
 
Автор Сообщение

Galfimbul

avatar Galfimbul


Стрела / Arrow
Год выпуска: 2014-2015
Страна: США
Жанр: фантастика, боевик, драма, криминал, детектив, приключения
Продолжительность: по ~ 00:42:00
Перевод: Профессиональный (многоголосый, закадровый от LostFilm)
Оригинальная дорожка: Нет
Cубтитры: Нет
Режиссер: Джон Беринг / John Behring, Майкл Шульц / Michael Schultz, Гай Норман Би / Guy Norman Bee
В ролях: Стивен Амелл, Эмили Бетт Рикардс, Кэти Кэссиди, Уилла Холлэнд, Джейми Шеридан, Жаклин МакИннес Вуд, Колин Сэлмон, Кэтлин Гати, Пол Блекторн, Сюзанна Томпсон и др.

Описание: После кораблекрушения плейбой миллиардер Оливер Куин пропадает и считается погибшим в течение пяти лет, после чего его обнаруживают живым на затерянном острове в Тихом океане. Когда он возвращается домой в Старлинг-Сити, его преданная мать Мойра, столь любимая сестра Теа и лучший друг Томми приветствуют его дома, но они видят, что Оливер изменился после испытаний на острове. Хотя Оливер скрывает правду о человеке, которым он стал…

Качество: WEB-DLRip
Формат: MP4
Видео: AVC, 640x360 (16:9), 700 kbps, 23.976 fps
Аудио 1: Русский, AAC, 2 ch, 48 kHz, 128 kbps [MVO LostFilm]
<ol type="1">
Затишье (The Calm)
Сара (Sara)
Корте Мальтез (Corto Maltese)
Колдун (The Magician)
Тайны прошлого Фелисити Смоук (The Secret Origin of Felicity Smoak)
Виновен (Guilty)
Придержи свой лук (Draw Back Your Bow)
Отважный и смелый (The Brave and the Bold)
Восхождение (The Climb)
Оставленные (Left Behind)
Полуночный город (Midnight City)
Восстание (Uprising)
Канарейки (Canaries)
Возвращение (The Return)
Нанда Парбат (Nanda Parbat)
Предложение (The Offer)
Суицидальные наклонности (Suicidal Tendencies)
Общий враг (Public Enemy)
Сломанная стрела (Broken Arrow)
Павшие (The Fallen)
Аль-Сахим (Al Sah-Him)
Таков твой меч (This Is Your Sword)
Меня зовут Оливер Куин (My Name Is Oliver Queen)
</ol>
x264 [info]: frame I:822 Avg QP:16.28 size: 18983
x264 [info]: frame P:26439 Avg QP:19.72 size: 6285
x264 [info]: frame B:34182 Avg QP:22.42 size: 1242

x264 [total]: encoded 61443 frames, 131.06 fps, 699.94 kb/s
General
Complete name : C:\Users\Vitalik\Videos\Стрелка\Новая папка\Arrow.S03E01.rus.LostFilm.mp4
Format : MPEG-4
Format profile : Base Media
Codec ID : isom
File size : 254 MiB
Duration : 42mn 42s
Overall bit rate mode : Variable
Overall bit rate : 832 Kbps
Encoded date : UTC 2015-05-23 08:19:24
Tagged date : UTC 2015-05-23 08:19:24

Video
ID : 1
Format : AVC
Format/Info : Advanced Video Codec
Format profile : [email protected]
Format settings, CABAC : Yes
Format settings, ReFrames : 4 frames
Codec ID : avc1
Codec ID/Info : Advanced Video Coding
Duration : 42mn 42s
Bit rate : 700 Kbps
Maximum bit rate : 3 343 Kbps
Width : 640 pixels
Height : 360 pixels
Display aspect ratio : 16:9
Frame rate mode : Constant
Frame rate : 23.976 fps
Color space : YUV
Chroma subsampling : 4:2:0
Bit depth : 8 bits
Scan type : Progressive
Bits/(Pixel*Frame) : 0.127
Stream size : 214 MiB (84%)
Title : [email protected]-DEV-rev248-g39d5978-master
Writing library : x264 core 146 r2538 121396c
Encoding settings : cabac=1 / ref=3 / deblock=1:0:0 / analyse=0x3:0x113 / me=hex / subme=7 / psy=1 / psy_rd=1.00:0.00 / mixed_ref=1 / me_range=16 / chroma_me=1 / trellis=1 / 8x8dct=1 / cqm=0 / deadzone=21,11 / fast_pskip=1 / chroma_qp_offset=-2 / threads=6 / lookahead_threads=1 / sliced_threads=0 / nr=0 / decimate=1 / interlaced=0 / bluray_compat=0 / constrained_intra=0 / bframes=3 / b_pyramid=2 / b_adapt=1 / b_bias=0 / direct=1 / weightb=1 / open_gop=0 / weightp=2 / keyint=250 / keyint_min=23 / scenecut=40 / intra_refresh=0 / rc_lookahead=40 / rc=2pass / mbtree=1 / bitrate=700 / ratetol=1.0 / qcomp=0.60 / qpmin=0 / qpmax=69 / qpstep=4 / cplxblur=20.0 / qblur=0.5 / ip_ratio=1.40 / aq=1:1.00
Encoded date : UTC 2015-05-23 08:19:24
Tagged date : UTC 2015-05-23 08:19:29

Audio
ID : 2
Format : AAC
Format/Info : Advanced Audio Codec
Format profile : LC
Codec ID : 40
Duration : 42mn 42s
Bit rate mode : Variable
Bit rate : 128 Kbps
Maximum bit rate : 169 Kbps
Channel(s) : 2 channels
Channel positions : Front: L R
Sampling rate : 48.0 KHz
Compression mode : Lossy
Stream size : 39.1 MiB (15%)
Encoded date : UTC 2015-05-23 08:18:22
Tagged date : UTC 2015-05-23 08:19:29
Внимание! Раздача ведётся путём добавления новых серий; при каждом добавлении создётся новый торрент. Чтобы начать докачку новой серии, пользователям необходимо сделать следующее:
(1) остановить скачивание,
(2) удалить старый торрент у себя из клиента (старые серии удалять не надо),
(3) скачать новый торрент и запустить его у себя в клиенте вместо старого, при этом указать клиенту путь в старую папку куда и должно происходить скачивание новых серий.
Ваш клиент при этом должен произвести хеширование (проверку) старой папки (если не производит сам - помогите ему сделать это), и будет докачивать только те серии которых у вас ещё нет. Старые серии при этом не удаляются, а продолжают раздаваться!
Eсли вы уже удалили старые серии, то предотвратить повторную закачку старых серий можно, отжав галочку в соответсвующих местах при запуске нового торрента. По возможности, желательно не удалять старые серии как можно дольше чтобы релизёр не столько продолжал раздавать старые серии, а смог сконцентрироваться на новых


Трекер:  [ 23-Май-2015 17:00 ]

  

Скачать .torrent

Размер .torrent файла 16 KB


Размер: 5.71 GB
Хэш (hash) релиза: 106ffb667304a0927a4822e2413ea1637f4092bb

Еще никто не оставлял запись к записи скачать торрент [SERIAL] Стрела Arrow . Будь первым!

!Обратная связь