Baixar toque para celular | The Hermes Scarf The Year It Snowed In April Abraham Lincoln Life Coldiron The Yom Kippur War October 1973 Law Enforcement Violence Against Women Of Color Trans People Of Color New Byzance Tome 3 Niebo W P Omieniach Glbt Teens And Society Ancient Israel In Sinai | Dictionnaires en langues étrangères

Скачать через торрент [SERIAL] Стрела Arrow бесплатно русская версия torrent активатор

Статистика раздачи
Размер:  5.69 GB   |    Зарегистрирован:  3 года 1 месяц   |    .torrent скачан:  114 раз   |   
Раздают:  1  
   
загрузка...
 
Автор Сообщение

Galfimbul

avatar Galfimbul


Стрела / Arrow
Год выпуска: 2012-2013
Страна: США
Жанр: фантастика, боевик, драма, криминал, детектив, приключения
Продолжительность: по ~ 00:42:00
Перевод: Профессиональный (многоголосый, закадровый от LostFilm)
Оригинальная дорожка: Нет
Cубтитры: Нет
Режиссер: Джон Беринг / John Behring, Майкл Шульц / Michael Schultz, Гай Норман Би / Guy Norman Bee
В ролях: Стивен Амелл, Эмили Бетт Рикардс, Кэти Кэссиди, Уилла Холлэнд, Джейми Шеридан, Жаклин МакИннес Вуд, Колин Сэлмон, Кэтлин Гати, Пол Блекторн, Сюзанна Томпсон и др.

Описание: После кораблекрушения плейбой миллиардер Оливер Куин пропадает и считается погибшим в течение пяти лет, после чего его обнаруживают живым на затерянном острове в Тихом океане. Когда он возвращается домой в Старлинг-Сити, его преданная мать Мойра, столь любимая сестра Теа и лучший друг Томми приветствуют его дома, но они видят, что Оливер изменился после испытаний на острове. Хотя Оливер скрывает правду о человеке, которым он стал…

Качество: WEB-DLRip
Формат: MP4
Видео: AVC, 640x360 (16:9), 700 kbps, 23.976 fps
Аудио 1: Русский, AAC, 2 ch, 48 kHz, 128 kbps [MVO LostFilm]
<ol type="1">
Город героев / City of Heroes
Найти себя / Identity
Сломанные куклы / Broken Dolls
Тяжёлое испытание / Crucible
Лига убийц / League of Assassins
Держи врагов ближе (Keep Your Enemies Closer)
Штат против Куинн (State vs Queen)
Учёный (The Scientist)
Три призрака / Three Ghosts
Радиус поражения / Blast Radius
Слепая зона (Blind Spot)
Волнения (Tremors)
Наследница демона (Heir to the Demon)
Время смерти (Time of Death)
Обещание (The Promise)
Отряд самоубийц (Suicide Squad)
Хищные птицы (Birds of Prey)
Дефстроук (Deathstroke)
Человек в капюшоне (The Man Under the Hood)
В ярости (Seeing Red)
Город в крови (City of Blood)
Улицы в огне (Streets of Fire)
Немыслимое (Unthinkable)
</ol>
264 [info]: frame I:1150 Avg QP:16.91 size: 18104
x264 [info]: frame P:26614 Avg QP:20.22 size: 6053
x264 [info]: frame B:33456 Avg QP:22.38 size: 1240

x264 [total]: encoded 61220 frames, 122.51 fps, 699.97 kb/s
General
Complete name : X:\Всё для мобильных телефонов и КПК\Видео\Arrow.S02.rus.LostFilm (2013-2014)\Arrow.S02E01.rus.LostFilm.mp4
Format : MPEG-4
Format profile : Base Media
Codec ID : isom
File size : 253 MiB
Duration : 42mn 33s
Overall bit rate mode : Variable
Overall bit rate : 832 Kbps
Encoded date : UTC 2015-05-22 16:16:22
Tagged date : UTC 2015-05-22 16:16:22

Video
ID : 1
Format : AVC
Format/Info : Advanced Video Codec
Format profile : [email protected]
Format settings, CABAC : Yes
Format settings, ReFrames : 4 frames
Codec ID : avc1
Codec ID/Info : Advanced Video Coding
Duration : 42mn 33s
Bit rate : 700 Kbps
Maximum bit rate : 4 160 Kbps
Width : 640 pixels
Height : 360 pixels
Display aspect ratio : 16:9
Frame rate mode : Constant
Frame rate : 23.976 fps
Color space : YUV
Chroma subsampling : 4:2:0
Bit depth : 8 bits
Scan type : Progressive
Bits/(Pixel*Frame) : 0.127
Stream size : 213 MiB (84%)
Title : [email protected]-DEV-rev248-g39d5978-master
Writing library : x264 core 146 r2538 121396c
Encoding settings : cabac=1 / ref=3 / deblock=1:0:0 / analyse=0x3:0x113 / me=hex / subme=7 / psy=1 / psy_rd=1.00:0.00 / mixed_ref=1 / me_range=16 / chroma_me=1 / trellis=1 / 8x8dct=1 / cqm=0 / deadzone=21,11 / fast_pskip=1 / chroma_qp_offset=-2 / threads=6 / lookahead_threads=1 / sliced_threads=0 / nr=0 / decimate=1 / interlaced=0 / bluray_compat=0 / constrained_intra=0 / bframes=3 / b_pyramid=2 / b_adapt=1 / b_bias=0 / direct=1 / weightb=1 / open_gop=0 / weightp=2 / keyint=250 / keyint_min=23 / scenecut=40 / intra_refresh=0 / rc_lookahead=40 / rc=2pass / mbtree=1 / bitrate=700 / ratetol=1.0 / qcomp=0.60 / qpmin=0 / qpmax=69 / qpstep=4 / cplxblur=20.0 / qblur=0.5 / ip_ratio=1.40 / aq=1:1.00
Encoded date : UTC 2015-05-22 16:16:22
Tagged date : UTC 2015-05-22 16:16:27

Audio
ID : 2
Format : AAC
Format/Info : Advanced Audio Codec
Format profile : LC
Codec ID : 40
Duration : 42mn 33s
Bit rate mode : Variable
Bit rate : 128 Kbps
Maximum bit rate : 152 Kbps
Channel(s) : 2 channels
Channel positions : Front: L R
Sampling rate : 48.0 KHz
Compression mode : Lossy
Stream size : 38.9 MiB (15%)
Encoded date : UTC 2015-05-22 16:15:15
Tagged date : UTC 2015-05-22 16:16:27
Внимание! Раздача ведётся путём добавления новых серий; при каждом добавлении создётся новый торрент. Чтобы начать докачку новой серии, пользователям необходимо сделать следующее:
(1) остановить скачивание,
(2) удалить старый торрент у себя из клиента (старые серии удалять не надо),
(3) скачать новый торрент и запустить его у себя в клиенте вместо старого, при этом указать клиенту путь в старую папку куда и должно происходить скачивание новых серий.
Ваш клиент при этом должен произвести хеширование (проверку) старой папки (если не производит сам - помогите ему сделать это), и будет докачивать только те серии которых у вас ещё нет. Старые серии при этом не удаляются, а продолжают раздаваться!
Eсли вы уже удалили старые серии, то предотвратить повторную закачку старых серий можно, отжав галочку в соответсвующих местах при запуске нового торрента. По возможности, желательно не удалять старые серии как можно дольше чтобы релизёр не столько продолжал раздавать старые серии, а смог сконцентрироваться на новых


Трекер:  [ 23-Май-2015 16:30 ]

  

Скачать .torrent

Размер .torrent файла 16 KB


Размер: 5.69 GB
Хэш (hash) релиза: 116cca6ca543d65915c8d06ac8d3289df3cdb68d

Еще никто не оставлял запись к записи скачать торрент [SERIAL] Стрела Arrow . Будь первым!

!Обратная связь