Favorito | nate dogg | Огата Мэгуми

Скачать через торрент [VIDEO] Миллион способов потерять голову A Million Ways to Die in the West бесплатно русская версия torrent активатор

Статистика раздачи
Размер:  800 MB   |    Зарегистрирован:  3 года 1 месяц   |    .torrent скачан:  64 раза   |   
Раздают:  1  
   
загрузка...
 
Автор Сообщение

Galfimbul

avatar Galfimbul


Миллион способов потерять голову / A Million Ways to Die in the West
Год выпуска: 2014

Страна:
Жанр: комедия, вестерн
Продолжительность: 01:56:01
Перевод: Профессиональный (дублированный)
Cубтитры: нет
Режиссер: Сет МакФарлейн / Seth MacFarlane
В ролях: Сет МакФарлейн, Шарлиз Терон, Аманда Сайфред, Лиам Нисон, Джованни Рибизи, Нил Патрик Харрис, Сара Силверман, Кристофер Хэйген, Уэс Стьюди, Мэтт Кларк. Угораздило же влюбиться не в том месте и не в то время. Здесь хамят в ресторанах, о горячей воде слагают легенды, да и с транспортом полный коллапс. Но у таинственной незнакомки отменная фигура, да и стреляет она без промаха. Кто же по своей воле откажется от такой красотки?Кинопоиск | IMDB
[b]Качество: HDRip
Исходник: A.Million.Ways.to.Die.in.the.West.2014.BDRip.720p HDCLUB
Формат: MP4
Видео: AVC, 640x264 (2,40:1), 833 kbps, 23,976fps
Аудио: Русский [Дубляж], AAC, 48kHz, (2 ch), 128,0 kbps[/b]
ОбщееПолное имя : A Million Ways to Die in the West 2014.mp4Формат : MPEG-4Профиль формата : Base MediaИдентификатор кодека : isomРазмер файла : 800 МбайтПродолжительность : 1 ч. 56 м.Режим общего битрейта : ПеременныйОбщий поток : 964 Кбит/секДата кодирования : UTC 2015-05-20 18:41:09Дата пометки : UTC 2015-05-20 18:41:09

ВидеоИдентификатор : 1Формат : AVCФормат/Информация : Advanced Video CodecПрофиль формата : [email protected]Параметр CABAC формата : ДаПараметр ReFrames формата : 10 кадровИдентификатор кодека : avc1Идентификатор кодека/Информация : Advanced Video CodingПродолжительность : 1 ч. 56 м.Битрейт : 833 Кбит/секМаксимальный битрейт : 3759 Кбит/секШирина : 640 пикселейВысота : 264 пикселяСоотношение сторон : 2,40:1Режим частоты кадров : ПостоянныйЧастота кадров : 23,976 кадра/секЦветовое пространство : YUVСубдискретизация насыщенности : 4:2:0Битовая глубина : 8 битТип развёртки : ПрогрессивнаяБит/(Пиксели*Кадры) : 0.206Размер потока : 690 Мбайт (86%)Заголовок : [email protected]-DEV-rev248-g39d5978-masterБиблиотека кодирования : x264 core 146 r2538 121396cДата кодирования : UTC 2015-05-20 18:41:09Дата пометки : UTC 2015-05-20 18:42:09

АудиоИдентификатор : 2Формат : AACФормат/Информация : Advanced Audio CodecПрофиль формата : LCИдентификатор кодека : 40Продолжительность : 1 ч. 56 м.Вид битрейта : ПеременныйБитрейт : 128 Кбит/секМаксимальный битрейт : 190 Кбит/секКаналы : 2 каналаРасположение каналов : Front: L RЧастота : 48,0 КГцМетод сжатия : С потерямиРазмер потока : 106 Мбайт (13%)Дата кодирования : UTC 2015-05-20 13:52:17Дата пометки : UTC 2015-05-20 18:42:09


Трекер:  [ 23-Май-2015 01:00 ]

  

Скачать .torrent

Размер .torrent файла 16 KB


Размер: 800 MB
Хэш (hash) релиза: 08084d62775a92781b69467033691e0ed9882c26

Еще никто не оставлял запись к записи скачать торрент [VIDEO] Миллион способов потерять голову A Million Ways to Die in the West . Будь первым!

!Обратная связь