Productiviteit | James Woods | HAMMA1962

Скачать через торрент [VIDEO] Дом Home бесплатно русская версия torrent активатор

Статистика раздачи
Размер:  561 MB   |    Зарегистрирован:  3 года 1 месяц   |    .torrent скачан:  43 раза   |   
Раздают:  1  
   
загрузка...
 
Автор Сообщение

Galfimbul

avatar Galfimbul


Дом / Home
Год выпуска: 2015
Страна: США
Жанр: мультфильм, фантастика, фэнтези, комедия, приключения, семейный
Продолжительность: 01:34:27
Перевод: Профессиональный (полное дублирование) [iTunes]
Оригинальная дорожка: Нет
Cубтитры: Нет
Режиссер: Тим Джонсон / Tim Johnson
В ролях: Джим Парсонс, Рианна, Стив Мартин, Дженнифер Лопес, Мэтт Джонс, Брайан Степанек, Эйприл Стрюбинг, Стивен Кеарин, Лиза Стюарт, Эйприл Уинчелл, Дерек Бланкеншип, Найджел В. Тирни

Описание: Захватив Землю, раса пришельцев Був тут же начинает заниматься её благоустройством и реорганизацией. «Не стоит благодарности!» — заявляют они землянам, собранным на время в отдельных резервациях. Находчивая и рисковая девочка по имени Дар, чудом сбежавшая от пришельцев, встречает на своем пути самого раздражающе-оптимистичного Бува по имени О, отвергнутого своими инопланетными собратьями. Этой, казалось бы, несовместимой парочке предстоит спасти нашу планету. Хорошо, что у них есть летающий автомобиль!

Качество: WEB-DLRip
Формат: MP4
Видео: AVC, 640x360 (16:9), 700 kbps, 23.976 fps
Аудио 1: Русский, AAC, 2 ch, 48 kHz, 128 kbps [Dub iTunes]
x264 [info]: frame I:2132 Avg QP:21.35 size: 22171
x264 [info]: frame P:62301 Avg QP:25.03 size: 5904
x264 [info]: frame B:71344 Avg QP:27.56 size: 1088

x264 [total]: encoded 135777 frames, 196.89 fps, 696.00 kb/s
General
Complete name : C:\Users\Vitalik\Videos\Home.2015.WEB-DLRip.mp4
Format : MPEG-4
Format profile : Base Media
Codec ID : isom
File size : 561 MiB
Duration : 1h 34mn
Overall bit rate mode : Variable
Overall bit rate : 831 Kbps
Encoded date : UTC 2015-05-21 18:20:15
Tagged date : UTC 2015-05-21 18:20:15

Video
ID : 1
Format : AVC
Format/Info : Advanced Video Codec
Format profile : [email protected]
Format settings, CABAC : Yes
Format settings, ReFrames : 4 frames
Codec ID : avc1
Codec ID/Info : Advanced Video Coding
Duration : 1h 34mn
Bit rate : 700 Kbps
Maximum bit rate : 5 431 Kbps
Width : 640 pixels
Height : 360 pixels
Display aspect ratio : 16:9
Frame rate mode : Constant
Frame rate : 23.976 fps
Color space : YUV
Chroma subsampling : 4:2:0
Bit depth : 8 bits
Scan type : Progressive
Bits/(Pixel*Frame) : 0.127
Stream size : 473 MiB (84%)
Title : [email protected]-DEV-rev248-g39d5978-master
Writing library : x264 core 146 r2538 121396c
Encoding settings : cabac=1 / ref=3 / deblock=1:0:0 / analyse=0x3:0x113 / me=hex / subme=7 / psy=1 / psy_rd=1.00:0.00 / mixed_ref=1 / me_range=16 / chroma_me=1 / trellis=1 / 8x8dct=1 / cqm=0 / deadzone=21,11 / fast_pskip=1 / chroma_qp_offset=-2 / threads=6 / lookahead_threads=1 / sliced_threads=0 / nr=0 / decimate=1 / interlaced=0 / bluray_compat=0 / constrained_intra=0 / bframes=3 / b_pyramid=2 / b_adapt=1 / b_bias=0 / direct=1 / weightb=1 / open_gop=0 / weightp=2 / keyint=250 / keyint_min=23 / scenecut=40 / intra_refresh=0 / rc_lookahead=40 / rc=2pass / mbtree=1 / bitrate=700 / ratetol=1.0 / qcomp=0.60 / qpmin=0 / qpmax=69 / qpstep=4 / cplxblur=20.0 / qblur=0.5 / ip_ratio=1.40 / aq=1:1.00
Encoded date : UTC 2015-05-21 18:20:15
Tagged date : UTC 2015-05-21 18:20:27

Audio
ID : 2
Format : AAC
Format/Info : Advanced Audio Codec
Format profile : LC
Codec ID : 40
Duration : 1h 33mn
Bit rate mode : Variable
Bit rate : 128 Kbps
Maximum bit rate : 189 Kbps
Channel(s) : 2 channels
Channel positions : Front: L R
Sampling rate : 48.0 KHz
Compression mode : Lossy
Stream size : 85.7 MiB (15%)
Encoded date : UTC 2015-05-21 18:17:45
Tagged date : UTC 2015-05-21 18:20:27


Трекер:  [ 21-Май-2015 21:00 ]

  

Скачать .torrent

Размер .torrent файла 11 KB


Размер: 561 MB
Хэш (hash) релиза: f914fc9f5826969b7987256c0f8c8f705345c054

Торренты, похожие на [VIDEO] Дом Home скачать торрент

Форум Название Автор Размер S L Добавлен
Видео (Фильмы/Клипы) ·· [VIDEO] Дом, милый дом / Home Sweet Home (Девид Морлет / David Morlet) [2013г, Канада, ужасы, триллер, WEBRip][MP4, 640x] VO Galfimbul 915224796873 MB 0 0 1369061207

17:46

20-Май-13

Видео (Фильмы/Клипы) ·· [VIDEO] Дом странных детей Мисс Перегрин / Miss Peregrine's Home for Peculiar Children (Тим Бёртон / Tim Burton) [2016, фэнтези, драма, приключения, семейный, BDRip] [MP4, 1280x] Dub, Original Eng, Sub Rus, Eng Galfimbul 31258641932.91 GB 0 0 1481639746

17:35

13-Дек-16

Видео (Фильмы/Клипы) ·· [VIDEO] Дом странных детей Мисс Перегрин / Miss Peregrine's Home for Peculiar Children (Тим Бёртон / Tim Burton) [2016, фэнтези, драма, приключения, семейный, BDRip] [MP4, 1280x] Galfimbul 22060445732.05 GB 0 0 1481178728

09:32

8-Дек-16

Видео (Фильмы/Клипы) ·· [VIDEO] Дом странных детей Мисс Перегрин / Miss Peregrine's Home for Peculiar Children (Тим Бёртон / Tim Burton) [2016, фэнтези, драма, приключения, семейный, BDRip] [MP4, 1280x] Dub, Original Eng, Sub Rus, Eng Galfimbul 31258232672.91 GB 0 0 1481145018

00:10

8-Дек-16

Видео (Фильмы/Клипы) ·· [VIDEO] Дом, милый ад / Home Sweet Hell (Энтони Бернс / Anthony Burns) [2015, триллер, комедия, драма, HDRip] [MP4, 640x] Galfimbul 539373797514 MB 0 0 1432665642

21:40

26-Май-15

Видео (Фильмы/Клипы) ·· [VIDEO] Один Дома / Home Alone (Крис Коламбус / Chris Columbus) [1990 г., комедия, семейный, BDRip] [MP4, 960x] Galfimbul 11562404041.08 GB 0 0 1420645948

18:52

7-Янв-15

Видео (Фильмы/Клипы) ·· [VIDEO] Один дома 2: Затерянный в Нью-Йорке / Home Alone 2: Lost in New York (Крис Коламбус / Chris Columbus) [1992 г., комедия, приключения, семейный, BDRip] [MP4, 960x] Galfimbul 16489384921.54 GB 0 0 1420831163

22:19

9-Янв-15

Видео (Фильмы/Клипы) ·· [VIDEO] Один дома 5: Рождественское ограбление / Home Alone 5: The holiday heist (Питер Хьюит / Peter Hewitt) [2012, США, Канада, Семейный, Комедия, HDRip][MP4, 480x] L 389027993371 MB 0 0 1357395300

17:15

5-Янв-13

Еще никто не оставлял запись к записи скачать торрент [VIDEO] Дом Home . Будь первым!

!Обратная связь