Wer kriegt die Verrückte? (2) That was Saliva, Alan (2) | 54% populární Přidáno 24. 6. 2017 132 200x Pobřežní hlídka USA 2017 Délka 119 min Doporučujeme! Žánry:Akční, Komedie Streamy:- HD (CZ Dabing)- HD (EN Dabing + CZ Titulky)- HD (EN Dabing + CZ Titulky)- TS (EN Dabing)- TS (EN Dabing) Pobřežní hlídka 2017 Obsah: Mitch (Dwayne Johnson) je chlap jako hora se silným morálním kompasem a stoprocentním zápalem pro práci vodního záchranáře. Je to… 132 200x 54% Přehrát | Commissario Laurenti

Скачать через торрент [SERIAL] Флэш The Flash бесплатно русская версия torrent активатор

Статистика раздачи
Размер:  5.48 GB   |    Зарегистрирован:  3 года 1 месяц   |    .torrent скачан:  101 раз   |   
Раздают:  1  
   
загрузка...
 
Автор Сообщение

Galfimbul

avatar Galfimbul


Флэш / The Flash
Год выпуска: 2014-2015
Страна: США
Жанр: фантастика, фэнтези, боевик, драма, приключения
Продолжительность: по ~ 00:45:00
Перевод: Профессиональный (многоголосый, закадровый от LostFilm)
Оригинальная дорожка: Нет
Cубтитры: Нет
Режиссер: Дэвид Наттер / David Nutter
В ролях: Грант Гастин, Кэндис Паттон, Рик Коснетт, Даниэль Панабэйкер, Карлос Вальдес, Томас Кэвэна, Джесси Л. Мартин, Джон Уэсли Шипп, Стивен Амелл, Ёсиэ Бэнкрофт и др.

Описание: Из-за несчастного случая судмедэксперт Барри Аллен приобретает способность передвигаться с невероятной скоростью. Этот случай делает из него супергероя, которым он всегда мечтал стать. Защищая город, как ангел-хранитель, делая невозможное, спасая жизни со скоростью вспышки, по подсказке Оливера Куина (Стрела), он берёт себе и соответствующее имя - Флэш.

Качество: WEB-DLRip
Формат: MP4
Видео: AVC, 640x360 (16:9), 700 kbps, 23.976 fps
Аудио 1: Русский, AAC, 2 ch, 48 kHz, 128 kbps [MVO LostFilm]
<ol type="1">
Пилот / Pilot
Самый быстрый из людей / Fastest Man Alive
То, от чего не сбежать / Things You Can't Outrun
Во все тяжкие / Going Rogue
Пластик / Plastique
Рождение Флэша / The Flash Is Born
Перебои в питании / Power Outage
Флэш против Стрелы / Flash vs. Arrow
Человек в желтом костюме / The Man in the Yellow Suit
Месть негодяев / Revenge of the Rogues
Звук и ярость / The Sound and the Fury
Без ума от тебя / Crazy for You
Ядерный человек / The Nuclear Man
Последствия / Fallout
Вне времени / Out of Time
Время негодяев / Rogue Time
Ловкачи / Tricksters
Команда звёзд / All Star Team Up
Кто такой Гаррисон Уэллс? / Who Is Harrison Wells?
Западня / The Trap
Гродд возвращается / Grodd Lives
Атмосфера безумия / Rogue Air
Достаточно быстро / Fast Enough
</ol>
x264 [info]: frame I:1215 Avg QP:16.25 size: 18021
x264 [info]: frame P:27687 Avg QP:19.36 size: 6042
x264 [info]: frame B:35421 Avg QP:21.77 size: 1286

x264 [total]: encoded 64323 frames, 147.76 fps, 699.97 kb/s
General
Complete name : X:\Всё для мобильных телефонов и КПК\Видео\The.Flash.S01.rus.LostFilm (2014-2015)\The.Flash.S01E01.rus.LostFilm.mp4
Format : MPEG-4
Format profile : Base Media
Codec ID : isom
File size : 266 MiB
Duration : 44mn 42s
Overall bit rate mode : Variable
Overall bit rate : 832 Kbps
Encoded date : UTC 2015-05-19 15:28:40
Tagged date : UTC 2015-05-19 15:28:40

Video
ID : 1
Format : AVC
Format/Info : Advanced Video Codec
Format profile : [email protected]
Format settings, CABAC : Yes
Format settings, ReFrames : 4 frames
Codec ID : avc1
Codec ID/Info : Advanced Video Coding
Duration : 44mn 42s
Bit rate : 700 Kbps
Maximum bit rate : 3 640 Kbps
Width : 640 pixels
Height : 360 pixels
Display aspect ratio : 16:9
Frame rate mode : Constant
Frame rate : 23.976 fps
Color space : YUV
Chroma subsampling : 4:2:0
Bit depth : 8 bits
Scan type : Progressive
Bits/(Pixel*Frame) : 0.127
Stream size : 224 MiB (84%)
Title : [email protected]-DEV-rev248-g39d5978-master
Writing library : x264 core 146 r2538 121396c
Encoding settings : cabac=1 / ref=3 / deblock=1:0:0 / analyse=0x3:0x113 / me=hex / subme=7 / psy=1 / psy_rd=1.00:0.00 / mixed_ref=1 / me_range=16 / chroma_me=1 / trellis=1 / 8x8dct=1 / cqm=0 / deadzone=21,11 / fast_pskip=1 / chroma_qp_offset=-2 / threads=6 / lookahead_threads=1 / sliced_threads=0 / nr=0 / decimate=1 / interlaced=0 / bluray_compat=0 / constrained_intra=0 / bframes=3 / b_pyramid=2 / b_adapt=1 / b_bias=0 / direct=1 / weightb=1 / open_gop=0 / weightp=2 / keyint=250 / keyint_min=23 / scenecut=40 / intra_refresh=0 / rc_lookahead=40 / rc=2pass / mbtree=1 / bitrate=700 / ratetol=1.0 / qcomp=0.60 / qpmin=0 / qpmax=69 / qpstep=4 / cplxblur=20.0 / qblur=0.5 / ip_ratio=1.40 / aq=1:1.00
Encoded date : UTC 2015-05-19 15:28:40
Tagged date : UTC 2015-05-19 15:28:45

Audio
ID : 2
Format : AAC
Format/Info : Advanced Audio Codec
Format profile : LC
Codec ID : 40
Duration : 44mn 42s
Bit rate mode : Variable
Bit rate : 128 Kbps
Maximum bit rate : 154 Kbps
Channel(s) : 2 channels
Channel positions : Front: L R
Sampling rate : 48.0 KHz
Compression mode : Lossy
Stream size : 40.9 MiB (15%)
Encoded date : UTC 2015-05-19 15:27:39
Tagged date : UTC 2015-05-19 15:28:45
Внимание! Раздача ведётся путём добавления новых серий; при каждом добавлении создётся новый торрент. Чтобы начать докачку новой серии, пользователям необходимо сделать следующее:
(1) остановить скачивание,
(2) удалить старый торрент у себя из клиента (старые серии удалять не надо),
(3) скачать новый торрент и запустить его у себя в клиенте вместо старого, при этом указать клиенту путь в старую папку куда и должно происходить скачивание новых серий.
Ваш клиент при этом должен произвести хеширование (проверку) старой папки (если не производит сам - помогите ему сделать это), и будет докачивать только те серии которых у вас ещё нет. Старые серии при этом не удаляются, а продолжают раздаваться!
Eсли вы уже удалили старые серии, то предотвратить повторную закачку старых серий можно, отжав галочку в соответсвующих местах при запуске нового торрента. По возможности, желательно не удалять старые серии как можно дольше чтобы релизёр не столько продолжал раздавать старые серии, а смог сконцентрироваться на новых


Трекер:  [ 20-Май-2015 18:00 ]

  

Скачать .torrent

Размер .torrent файла 15 KB


Размер: 5.48 GB
Хэш (hash) релиза: 1b65f8a72778e88da66578d039f922bee199ad2a

Еще никто не оставлял запись к записи скачать торрент [SERIAL] Флэш The Flash . Будь первым!

!Обратная связь