(2011) DVD Alvin and the Chipmunks: C.. | Star Blazers 2199: Space Battleship Yamato | Knightfall

Скачать через торрент [VIDEO] Фокус Focus бесплатно русская версия torrent активатор

Статистика раздачи
Размер:  623 MB   |    Зарегистрирован:  3 года 1 месяц   |    .torrent скачан:  37 раз   |   
Раздают:  1  
   
загрузка...
 
Автор Сообщение

Galfimbul

avatar Galfimbul


Фокус / Focus
Год выпуска: 2015
Страна: США, Аргентина
Жанр: драма, мелодрама, комедия, криминал
Продолжительность: 01:44:40
Перевод: Профессиональный (полное дублирование) [iTunes]
Оригинальная дорожка: Нет
Cубтитры: Нет
Режиссер: Гленн Фикарра, Джон Рекуа
В ролях: Уилл Смит, Марго Робби, Адриан Мартинес, Джералд МакРэйни, Родриго Санторо, Б. Д. Вонг, Бреннан Браун, Роберт Тейлор (II), Грифф Ферст, Стефани Онор

Описание: История об опытном мошеннике, который влюбляется в девушку, делающую первые шаги на поприще нелегального отъема средств у граждан. Отношения становятся для них проблемой, когда обнаруживается, что романтика мешает их нечестному бизнесу.

Качество: HDRip
Формат: MP4
Видео: AVC, 640x360 (16:9), 700 kbps, 23.976 fps
Аудио 1: Русский, AAC, 2 ch, 48 kHz, 128 kbps [iTunes]
x264 [info]: frame I:1906 Avg QP:17.47 size: 29387
x264 [info]: frame P:58592 Avg QP:21.32 size: 6791
x264 [info]: frame B:90169 Avg QP:23.92 size: 1096

x264 [total]: encoded 150667 frames, 256.71 fps, 703.72 kb/s
General
Complete name : C:\Users\Vitalik\Videos\Focus..2015.HDRip.mp4
Format : MPEG-4
Format profile : Base Media
Codec ID : isom
File size : 623 MiB
Duration : 1h 44mn
Overall bit rate mode : Variable
Overall bit rate : 832 Kbps
Encoded date : UTC 2015-05-19 21:25:10
Tagged date : UTC 2015-05-19 21:25:10

Video
ID : 1
Format : AVC
Format/Info : Advanced Video Codec
Format profile : [email protected]
Format settings, CABAC : Yes
Format settings, ReFrames : 4 frames
Codec ID : avc1
Codec ID/Info : Advanced Video Coding
Duration : 1h 44mn
Bit rate : 700 Kbps
Maximum bit rate : 4 003 Kbps
Width : 640 pixels
Height : 360 pixels
Display aspect ratio : 16:9
Frame rate mode : Constant
Frame rate : 23.976 fps
Color space : YUV
Chroma subsampling : 4:2:0
Bit depth : 8 bits
Scan type : Progressive
Bits/(Pixel*Frame) : 0.127
Stream size : 524 MiB (84%)
Title : [email protected]-DEV-rev248-g39d5978-master
Writing library : x264 core 146 r2538 121396c
Encoding settings : cabac=1 / ref=3 / deblock=1:0:0 / analyse=0x3:0x113 / me=hex / subme=7 / psy=1 / psy_rd=1.00:0.00 / mixed_ref=1 / me_range=16 / chroma_me=1 / trellis=1 / 8x8dct=1 / cqm=0 / deadzone=21,11 / fast_pskip=1 / chroma_qp_offset=-2 / threads=6 / lookahead_threads=1 / sliced_threads=0 / nr=0 / decimate=1 / interlaced=0 / bluray_compat=0 / constrained_intra=0 / bframes=3 / b_pyramid=2 / b_adapt=1 / b_bias=0 / direct=1 / weightb=1 / open_gop=0 / weightp=2 / keyint=250 / keyint_min=23 / scenecut=40 / intra_refresh=0 / rc_lookahead=40 / rc=2pass / mbtree=1 / bitrate=700 / ratetol=1.0 / qcomp=0.60 / qpmin=0 / qpmax=69 / qpstep=4 / cplxblur=20.0 / qblur=0.5 / ip_ratio=1.40 / aq=1:1.00
Encoded date : UTC 2015-05-19 21:25:10
Tagged date : UTC 2015-05-19 21:25:20

Audio
ID : 2
Format : AAC
Format/Info : Advanced Audio Codec
Format profile : LC
Codec ID : 40
Duration : 1h 44mn
Bit rate mode : Variable
Bit rate : 128 Kbps
Maximum bit rate : 152 Kbps
Channel(s) : 2 channels
Channel positions : Front: L R
Sampling rate : 48.0 KHz
Compression mode : Lossy
Stream size : 95.8 MiB (15%)
Encoded date : UTC 2015-05-19 21:22:58
Tagged date : UTC 2015-05-19 21:25:20


Трекер:  [ 20-Май-2015 10:30 ]

  

Скачать .torrent

Размер .torrent файла 12 KB


Размер: 623 MB
Хэш (hash) релиза: 026d21002132aa38d3ea9eecd563f2fae210ddcf

Еще никто не оставлял запись к записи скачать торрент [VIDEO] Фокус Focus . Будь первым!

!Обратная связь