gta san andreas | Thriller | Good Housekeeping April 2012

Скачать через торрент [VIDEO] Робот по имени Чаппи Chappie бесплатно русская версия torrent активатор

Статистика раздачи
Размер:  554 MB   |    Зарегистрирован:  3 года 2 месяца   |    .torrent скачан:  176 раз   |   
Раздают:  1  
   
загрузка...
 
Автор Сообщение

Galfimbul

avatar Galfimbul


Робот по имени Чаппи / Chappie
Год выпуска: 2015

Страна: США, Мексика, ЮАР
Жанр: фантастика, боевик, триллер
Продолжительность: 02:00:21
Перевод: Профессиональный (полное дублирование), iTunes Russia
Русские субтитры: нет
Режиссер: Нил Бломкамп / Neill Blomkamp
В ролях: Шарлто Копли, Дев Патель, Ниндзя, Йоланди Фиссер, Хосе Пабло Кантилльо, Хью Джекман, Сигурни Уивер, Брэндон Оре, Джонни Селема, Андерсон Купер, Морис Карпеде, Джейсон Коуп, Кевин Отто, Крис Шилдс, Билл Мэрчент, Роберт Хоббс, Марк К. Куслу Чаппи - вундеркинд. Как и любой другой ребенок, он попадает под влияние своего окружения, и только его сердце и душа помогут ему найти свой путь. Но есть одна вещь, которая делает Чаппи непохожим на всех остальных: он - первый робот, способный чувствовать и думать.Кинопоиск | IMDB
[b]Качество: WEB-DLRip
Исходник: Chappie.2015.720p.WEB-DL HDCLUB
Формат: MP4
Видео: AVC, 480x200 (2,40:1), 512 kbps, 23,976fps
Аудио: Русский [Дубляж], AAC, 48kHz, (2 ch), 128,0 kbps[/b]
ОбщееПолное имя : Chappie 2015.mp4Формат : MPEG-4Профиль формата : Base MediaИдентификатор кодека : isomРазмер файла : 554 МбайтПродолжительность : 2 ч. 0 м.Режим общего битрейта : ПеременныйОбщий поток : 643 Кбит/секДата кодирования : UTC 2015-05-18 14:55:14Дата пометки : UTC 2015-05-18 14:55:14

ВидеоИдентификатор : 1Формат : AVCФормат/Информация : Advanced Video CodecПрофиль формата : [email protected]Параметр CABAC формата : ДаПараметр ReFrames формата : 10 кадровИдентификатор кодека : avc1Идентификатор кодека/Информация : Advanced Video CodingПродолжительность : 2 ч. 0 м.Битрейт : 512 Кбит/секМаксимальный битрейт : 3314 Кбит/секШирина : 480 пикселейВысота : 200 пикселейСоотношение сторон : 2,40:1Режим частоты кадров : ПостоянныйЧастота кадров : 23,976 кадра/секЦветовое пространство : YUVСубдискретизация насыщенности : 4:2:0Битовая глубина : 8 битТип развёртки : ПрогрессивнаяБит/(Пиксели*Кадры) : 0.222Размер потока : 440 Мбайт (79%)Заголовок : [email protected]-DEV-rev248-g39d5978-masterБиблиотека кодирования : x264 core 146 r2538 121396cДата кодирования : UTC 2015-05-18 14:55:14Дата пометки : UTC 2015-05-18 14:56:29

АудиоИдентификатор : 2Формат : AACФормат/Информация : Advanced Audio CodecПрофиль формата : LCИдентификатор кодека : 40Продолжительность : 2 ч. 0 м.Вид битрейта : ПеременныйБитрейт : 128 Кбит/секМаксимальный битрейт : 196 Кбит/секКаналы : 2 каналаРасположение каналов : Front: L RЧастота : 48,0 КГцМетод сжатия : С потерямиРазмер потока : 110 Мбайт (20%)Дата кодирования : UTC 2015-05-18 11:20:32Дата пометки : UTC 2015-05-18 14:56:29


Трекер:  [ 19-Май-2015 23:30 ]

  

Скачать .torrent

Размер .torrent файла 11 KB


Размер: 554 MB
Хэш (hash) релиза: d65941fde29c45a1246c70cf5cdb1981de21f185

Торренты, похожие на [VIDEO] Робот по имени Чаппи Chappie скачать торрент

Форум Название Автор Размер S L Добавлен
Видео (Фильмы/Клипы) ·· [VIDEO] Робот по имени Чаппи / Chappie (Нил Бломкамп / Neill Blomkamp) [2015, США, фантастика, боевик, триллер, HDRip][MP4, 320x] Dub Galfimbul 442554597422 MB 0 0 1434464319

17:18

16-Июн-15

Видео (Фильмы/Клипы) ·· [VIDEO] Робот по имени Чаппи / Chappie (Нил Бломкамп / Neill Blomkamp) [2015, фантастика, боевик, триллер, WEB-DLRip] [3GP, 320x] Galfimbul 434928692415 MB 0 0 1431948390

14:26

18-Май-15

Еще никто не оставлял запись к записи скачать торрент [VIDEO] Робот по имени Чаппи Chappie . Будь первым!

!Обратная связь