[HorribleSubs] Puzzle and Dragons Cross - 62 [480p] mkv
Dragon Ball Z Special 2: The History of Trunks

Скачать через торрент [VIDEO] Снайпер American Sniper бесплатно русская версия torrent активатор

Статистика раздачи
Размер:  895 MB   |    Зарегистрирован:  2 года 11 месяцев   |    .torrent скачан:  77 раз   |   
Раздают:  1  
   
загрузка...
 
Автор Сообщение

Galfimbul

avatar Galfimbul


Снайпер / American Sniper
Год выпуска: 2014

Страна:
Жанр: боевик, триллер, военный, биография
Продолжительность: 02:12:39
Перевод: Профессиональный (дублированный)
Cубтитры: нет
Режиссер: Клинт Иствуд / Clint Eastwood
В ролях: Брэдли Купер, Сиенна Миллер, Кайл Галлнер, Коул Конис, Бен Рид, Элиз Робертсон, Люк Саншайн, Трой Винсент, Брэндон Сальгадо, Кейр О’Доннелл Экранизация мемуаров «морского котика» из Техаса Криса Кайла, который служил снайпером в Ираке и стал рекордсменом по числу убитых солдат противника, за что иракцы прозвали его дьяволом. Кроме самой войны, фильм рассказывает о воспоминаниях жены Криса, которая была свидетелем растущей привязанности мужа к его сослуживцам.Кинопоиск | IMDB
[b]Качество: HDRip
Исходник: American.Sniper.2014.720p.BluRay HDCLUB
Формат: MP4
Видео: AVC, 640x264 (2,40:1), 816 kbps, 23,976fps
Аудио: Русский [Дубляж], AAC, 48kHz, (2 ch), 128,0 kbps[/b]
ОбщееПолное имя : American Sniper 2014.mp4Формат : MPEG-4Профиль формата : Base MediaИдентификатор кодека : isomРазмер файла : 895 МбайтПродолжительность : 2 ч. 12 м.Режим общего битрейта : ПеременныйОбщий поток : 943 Кбит/секДата кодирования : UTC 2015-05-19 04:07:19Дата пометки : UTC 2015-05-19 04:07:19

ВидеоИдентификатор : 1Формат : AVCФормат/Информация : Advanced Video CodecПрофиль формата : [email protected]Параметр CABAC формата : ДаПараметр ReFrames формата : 10 кадровИдентификатор кодека : avc1Идентификатор кодека/Информация : Advanced Video CodingПродолжительность : 2 ч. 12 м.Битрейт : 816 Кбит/секМаксимальный битрейт : 5545 Кбит/секШирина : 640 пикселейВысота : 264 пикселяСоотношение сторон : 2,40:1Режим частоты кадров : ПостоянныйЧастота кадров : 23,976 кадра/секЦветовое пространство : YUVСубдискретизация насыщенности : 4:2:0Битовая глубина : 8 битТип развёртки : ПрогрессивнаяБит/(Пиксели*Кадры) : 0.201Размер потока : 774 Мбайт (87%)Заголовок : [email protected]-DEV-rev248-g39d5978-masterБиблиотека кодирования : x264 core 146 r2538 121396cДата кодирования : UTC 2015-05-19 04:07:19Дата пометки : UTC 2015-05-19 04:07:58

АудиоИдентификатор : 2Формат : AACФормат/Информация : Advanced Audio CodecПрофиль формата : LCИдентификатор кодека : 40Продолжительность : 2 ч. 12 м.Вид битрейта : ПеременныйБитрейт : 123 Кбит/секМаксимальный битрейт : 186 Кбит/секКаналы : 2 каналаРасположение каналов : Front: L RЧастота : 48,0 КГцМетод сжатия : С потерямиРазмер потока : 117 Мбайт (13%)Дата кодирования : UTC 2015-05-18 22:39:01Дата пометки : UTC 2015-05-19 04:07:58


Трекер:  [ 19-Май-2015 23:00 ]

  

Скачать .torrent

Размер .torrent файла 18 KB


Размер: 895 MB
Хэш (hash) релиза: bbc8a9d469be892c336dda807def1055f04e5f5c

Торренты, похожие на [VIDEO] Снайпер American Sniper скачать торрент

Форум Название Автор Размер S L Добавлен
Видео (Фильмы/Клипы) ·· [VIDEO] Снайпер / Американский снайпер / American Sniper (Клинт Иствуд / Clint Eastwood) [2014, США, боевик, триллер, военный, биография, HDRip][MP4, 320x] Dub Galfimbul 483884753461 MB 0 0 1438335055

12:30

31-Июл-15

Еще никто не оставлял запись к записи скачать торрент [VIDEO] Снайпер American Sniper . Будь первым!

!Обратная связь