Harry Potter And The Sorcerer's Stone | Cobra Kai (2018) | Valkoinen Toyota vei vaimoni

Скачать через торрент [SERIAL] Флэш The Flash бесплатно русская версия torrent активатор

Статистика раздачи
Размер:  5.47 GB   |    Зарегистрирован:  3 года 1 месяц   |    .torrent скачан:  58 раз   |   
Раздают:  1  
   
загрузка...
 
Автор Сообщение

Galfimbul

avatar Galfimbul


Флэш / The Flash
Год выпуска: 2014-2015
Страна: Франция
Жанр: фантастика, фэнтези, боевик, драма, приключения
Продолжительность: по ~ 00:42:00
Перевод: Профессиональный (многоголосый, закадровый от LostFilm)
Оригинальная дорожка: Нет
Cубтитры: Нет
Режиссер: Дэвид Наттер
В ролях: Грант Гастин, Кэндис Паттон, Рик Коснетт, Даниэль Панабэйкер, Карлос Вальдес, Томас Кэвэна, Джесси Л. Мартин, Джон Уэсли Шипп, Стивен Амелл, Ёсиэ Бэнкрофт и др.

Описание: Из-за несчастного случая судмедэксперт Барри Аллен приобретает способность передвигаться с невероятной скоростью. Этот случай делает из него супергероя, которым он всегда мечтал стать. Защищая город, как ангел-хранитель, делая невозможное, спасая жизни со скоростью вспышки, по подсказке Оливера Куина (Стрела), он берёт себе и соответствующее имя - Флэш.

Качество: WEB-DLRip
Формат: MP4
Видео: AVC, 640x272 (2.35:1), 700 kbps, 23.976 fps
Аудио 1: Русский, AAC, 2 ch, 48 kHz, 128 kbps [MVO от LostFilm]
Tot: enctime(ms) =303987.00, length(bytes) = 329601755
Avg: enctime(ms) = 4.73, fps = 211.61, length(bytes) = 5123
I frames: 1139 frames, size = 16921/ 19273935, quants = 2 / 2.00 / 2
P frames: 23636 frames, size = 10058/ 237739425, quants = 2 / 2.00 / 2
B frames: 39548 frames, size = 1835/ 72588395, quants = 4 / 4.00 / 4

Trying to retrieve width and height from input header
xvid [info]: Avisynth detected
xvid [info]: Input colorspace is YV12
xvid [info]: Input is 640 x 272, 23.976fps (2500000/104271), starting from frame 0
xvid [info]: Number of frames to encode: 64323
xvid [info]: xvidcore build version: xvid-1.2.2
xvid [info]: Bitstream version: 1.2.2
xvid [info]: Detected CPU flags: ASM MMX MMXEXT SSE SSE2 TSC
xvid [info]: Detected cpus = 4, threads requested = 5, threads in use = 5
xvid [info]: Threaded input reading active
General
Complete name : C:\Users\Vitalik\Videos\The.Flash.S01.rus.LostFilm.TV (2014-2015)\The.Flash.S01E01.2014.rus.LostFilm.TV.mp4
Format : MPEG-4
Format profile : Base Media
Codec ID : isom
File size : 266 MiB
Duration : 44mn 42s
Overall bit rate mode : Variable
Overall bit rate : 831 Kbps
Encoded date : UTC 2015-05-18 21:06:47
Tagged date : UTC 2015-05-18 21:06:47

Video
ID : 1
Format : MPEG-4 Visual
Format profile : Advanced [email protected]
Format settings, BVOP : Yes
Format settings, QPel : Yes
Format settings, GMC : 3 warppoints
Format settings, Matrix : Default (H.263)
Codec ID : 20
Duration : 44mn 42s
Bit rate mode : Variable
Bit rate : 700 Kbps
Maximum bit rate : 5 734 Kbps
Width : 640 pixels
Height : 272 pixels
Display aspect ratio : 2.35:1
Frame rate mode : Constant
Frame rate : 23.976 fps
Color space : YUV
Chroma subsampling : 4:2:0
Bit depth : 8 bits
Scan type : Progressive
Compression mode : Lossy
Bits/(Pixel*Frame) : 0.168
Stream size : 224 MiB (84%)
Title : [email protected]-DEV-rev248-g39d5978-master
Writing library : XviD 1.2.1 (UTC 2008-12-04)
Encoded date : UTC 2015-05-18 21:06:47
Tagged date : UTC 2015-05-18 21:06:49

Audio
ID : 2
Format : AAC
Format/Info : Advanced Audio Codec
Format profile : LC
Codec ID : 40
Duration : 44mn 42s
Bit rate mode : Variable
Bit rate : 128 Kbps
Maximum bit rate : 154 Kbps
Channel(s) : 2 channels
Channel positions : Front: L R
Sampling rate : 48.0 KHz
Compression mode : Lossy
Stream size : 40.9 MiB (15%)
Encoded date : UTC 2015-05-18 20:53:56
Tagged date : UTC 2015-05-18 21:06:49


Трекер:  [ 19-Май-2015 14:30 ]

  

Скачать .torrent

Размер .torrent файла 16 KB


Размер: 5.47 GB
Хэш (hash) релиза: b8464e2222181897ace392565fe5968f9be3bcee

Еще никто не оставлял запись к записи скачать торрент [SERIAL] Флэш The Flash . Будь первым!

!Обратная связь