Top 100 Praise and Worship Contemporary Christian Gospel Music Songs of 2015 | Aidan Quinn | IMDb: 5.7 HD Distorted

Скачать через торрент [VIDEO] Из машины Ex Machina бесплатно русская версия torrent активатор

Статистика раздачи
Размер:  695 MB   |    Зарегистрирован:  3 года 2 месяца   |    .torrent скачан:  89 раз   |   
Раздают:  1  
   
загрузка...
 
Автор Сообщение

Galfimbul

avatar Galfimbul


Из машины / Ex Machina
Год выпуска: 2015

Страна:
Жанр: фантастика, драма
Продолжительность: 01:48:00
Перевод: Профессиональный (дублированный)
Cубтитры: нет
Режиссер: Алекс Гарленд / Alex Garland
В ролях: Донал Глисон, Кори Джонсон, Оскар Айзек, Алисия Викандер, Соноя Мизуно, Симара А. Темплмен, Тиффани Писани, Элина Алминас В центре сюжета - молодой человек, которого нанимает миллиардер, сделавший состояние на высокотехнологичных разработках. Задача работника - провести неделю в удаленном местечке, тестируя женщину-робота с искусственным интеллектом.Кинопоиск | IMDB
[b]Качество: HDRip
Исходник: Ex.Machina.2015.720p.BluRay HDclub
Формат: MP4
Видео: AVC, 640x264 (2,40:1), 768 kbps, 23,976fps
Аудио: Русский [Дубляж], AAC, 48kHz, (2 ch), 128,0 kbps[/b]
ОбщееПолное имя : Ex Machina 2015.mp4Формат : MPEG-4Профиль формата : Base MediaИдентификатор кодека : isomРазмер файла : 695 МбайтПродолжительность : 1 ч. 48 м.Режим общего битрейта : ПеременныйОбщий поток : 899 Кбит/секДата кодирования : UTC 2015-05-17 21:16:35Дата пометки : UTC 2015-05-17 21:16:35

ВидеоИдентификатор : 1Формат : AVCФормат/Информация : Advanced Video CodecПрофиль формата : [email protected]Параметр CABAC формата : ДаПараметр ReFrames формата : 10 кадровИдентификатор кодека : avc1Идентификатор кодека/Информация : Advanced Video CodingПродолжительность : 1 ч. 48 м.Битрейт : 768 Кбит/секМаксимальный битрейт : 13,0 Мбит/секШирина : 640 пикселейВысота : 264 пикселяСоотношение сторон : 2,40:1Режим частоты кадров : ПостоянныйЧастота кадров : 23,976 кадра/секЦветовое пространство : YUVСубдискретизация насыщенности : 4:2:0Битовая глубина : 8 битТип развёртки : ПрогрессивнаяБит/(Пиксели*Кадры) : 0.190Размер потока : 593 Мбайт (85%)Заголовок : [email protected]-DEV-rev248-g39d5978-masterБиблиотека кодирования : x264 core 146 r2538 121396cДата кодирования : UTC 2015-05-17 21:16:35Дата пометки : UTC 2015-05-17 21:17:27

АудиоИдентификатор : 2Формат : AACФормат/Информация : Advanced Audio CodecПрофиль формата : LCИдентификатор кодека : 40Продолжительность : 1 ч. 48 м.Вид битрейта : ПеременныйБитрейт : 128 Кбит/секМаксимальный битрейт : 193 Кбит/секКаналы : 2 каналаРасположение каналов : Front: L RЧастота : 48,0 КГцМетод сжатия : С потерямиРазмер потока : 98,7 Мбайт (14%)Дата кодирования : UTC 2015-05-17 15:55:01Дата пометки : UTC 2015-05-17 21:17:27


Трекер:  [ 18-Май-2015 00:30 ]

  

Скачать .torrent

Размер .torrent файла 14 KB


Размер: 695 MB
Хэш (hash) релиза: e5cfb8596bb12937d25aaa0d32f531aae1ce2e50

Торренты, похожие на [VIDEO] Из машины Ex Machina скачать торрент

Форум Название Автор Размер S L Добавлен
Видео (Фильмы/Клипы) ·· [VIDEO] Из машины / Ex Machina (Алекс Гарленд / Alex Garland) [2015, фантастика, драма, HDRip] [MP4, 960x] Dub, VO Визгунов, Original Galfimbul 13352913621.24 GB 0 0 1434654734

22:12

18-Июн-15

Еще никто не оставлял запись к записи скачать торрент [VIDEO] Из машины Ex Machina . Будь первым!

!Обратная связь