Beat your Bloat | Beach Life (2002/PC/RUS) | Baixar toque para celular

Скачать через торрент [VIDEO] Кибер Blackhat бесплатно русская версия torrent активатор

Статистика раздачи
Размер:  728 MB   |    Зарегистрирован:  3 года 2 месяца   |    .torrent скачан:  52 раза   |   
Раздают:  1  
   
загрузка...
 
Автор Сообщение

Galfimbul

avatar Galfimbul


Кибер / Blackhat
Год выпуска: 2015

Страна:
Жанр: боевик, триллер, драма, криминал, детектив
Продолжительность: 02:12:55
Перевод: Профессиональный (дублированный)
Cубтитры: нет
Режиссер: Майкл Манн / Michael Mann
В ролях: Крис Хемсворт, Ван Лихом, Тан Вэй, Виола Дэвис, Холт МакКэллани, Энди Он, Ричи Костер, Кристиан Борл, Джон Ортис, Йорик ван Вагенинген Спокойная, размеренная жизнь современного мирового пространства. Кажется, что ничто не может нарушить равномерный, плавный ход событий, жизнь настолько механизирована, все рассчитано до мельчайшей детали, что, казалось бы, что может произойти? Какое событие может выбить из колеи столь идеально отлаженную машину? Однако именно разработки в области новейших технологий представляют главную угрозу человечеству. Лучшие ученые умы из США и Китая объединяют силы в борьбе против самой мощной кибернетической атаки.Кинопоиск | IMDB
[b]Качество: HDRip
Исходник: Blackhat.2015.720p.BluRay HDclub
Формат: MP4
Видео: AVC, 640x264 (2,40:1), 634 kbps, 23,976fps
Аудио: Русский [Дубляж], AAC, 48kHz, (2 ch), 128,0 kbps[/b]
ОбщееПолное имя : Blackhat 2015.mp4Формат : MPEG-4Профиль формата : Base MediaИдентификатор кодека : isomРазмер файла : 728 МбайтПродолжительность : 2 ч. 12 м.Режим общего битрейта : ПеременныйОбщий поток : 766 Кбит/секДата кодирования : UTC 2015-05-14 19:41:59Дата пометки : UTC 2015-05-14 19:41:59

ВидеоИдентификатор : 1Формат : AVCФормат/Информация : Advanced Video CodecПрофиль формата : [email protected]Параметр CABAC формата : ДаПараметр ReFrames формата : 10 кадровИдентификатор кодека : avc1Идентификатор кодека/Информация : Advanced Video CodingПродолжительность : 2 ч. 12 м.Битрейт : 634 Кбит/секМаксимальный битрейт : 5046 Кбит/секШирина : 640 пикселейВысота : 264 пикселяСоотношение сторон : 2,40:1Режим частоты кадров : ПостоянныйЧастота кадров : 23,976 кадра/секЦветовое пространство : YUVСубдискретизация насыщенности : 4:2:0Битовая глубина : 8 битТип развёртки : ПрогрессивнаяБит/(Пиксели*Кадры) : 0.157Размер потока : 603 Мбайт (83%)Заголовок : [email protected]-DEV-rev248-g39d5978-masterБиблиотека кодирования : x264 core 146 r2538 121396cДата кодирования : UTC 2015-05-14 19:41:59Дата пометки : UTC 2015-05-14 19:43:07

АудиоИдентификатор : 2Формат : AACФормат/Информация : Advanced Audio CodecПрофиль формата : LCИдентификатор кодека : 40Продолжительность : 2 ч. 12 м.Вид битрейта : ПеременныйБитрейт : 128 Кбит/секМаксимальный битрейт : 169 Кбит/секКаналы : 2 каналаРасположение каналов : Front: L RЧастота : 48,0 КГцМетод сжатия : С потерямиРазмер потока : 122 Мбайт (17%)Дата кодирования : UTC 2015-05-14 13:58:14Дата пометки : UTC 2015-05-14 19:43:07


Трекер:  [ 17-Май-2015 17:00 ]

  

Скачать .torrent

Размер .torrent файла 14 KB


Размер: 728 MB
Хэш (hash) релиза: 05d2b9485e7544266f7cd1dfefa88f062564387c

Еще никто не оставлял запись к записи скачать торрент [VIDEO] Кибер Blackhat . Будь первым!

!Обратная связь