Eric Mabius | QSerie.com - Peliculas 2015 Online Gratis! | Porky’s 2

Скачать через торрент [VIDEO] Выход Дракона Enter the Dragon бесплатно русская версия torrent активатор

Статистика раздачи
Размер:  1.41 GB   |    Зарегистрирован:  3 года 2 месяца   |    .torrent скачан:  40 раз   |   
Раздают:  1  
   
загрузка...
 
Автор Сообщение

Galfimbul

avatar Galfimbul


Выход Дракона / Enter the Dragon«Their deadly mission: to crack the forbidden island of Han!»

Год выпуска: 1973
Страна: Гонконг, США
Жанр: боевик, триллер, драма, криминал
Продолжительность: 01:42:33
Перевод №1: Профессиональный (полное дублирование)
Перевод №2: Профессиональный (многоголосый, закадровый) Superbit
Перевод №3: Авторский (одногоголосый, закадровый) Юрий Живов
Cубтитры: нет
Режиссер: Роберт Клауз / Robert Clouse
Сценарист: Майкл Аллин / Michael Allin
Оператор: Джил Хуббс / Gil Hubbs
Композитор: Лало Шифрин / Lalo Schifrin
В ролях: Брюс Ли / Bruce Lee (Lee), Кьень Ши / Kien Shih (в титрах: Shih Kien) (Han), Джон Сэксон / John Saxon (Roper), Джим Келли / Jim Kelly (Williams), Боло Йенг / Bolo Yeung (в титрах: Yang Sze) (Bolo), Ана Капри / Ahna Capri (Tania), Анджела Мао / Angela Mao (в титрах: Angela Mao Ying) (Su Lin (Guest star)), Роберт Уолл / Robert Wall (в титрах: Bob Wall) (Oharra), Бетти Чюн / Betty Chung (Mei Ling) и другие .
Бюджет: $850 000Сборы в США: $25 000 000Зрители: 14.1 млн, 4.44 млн, 1.7 млнПремьера (мир): 26 июля 1973Релиз на DVD: 27 марта 2001, «Мост-Видео»
Описание: События переносят нас на остров, превращенный в крепость главарем боевиков, открывшим там школу боевых искусств, которая является лишь ширмой, маскирующей контрабандный бизнес. В эту цитадель проникает герой Брюса Ли и становится участником жестокого турнира…
Релиз группы
Качество: HDRip / [url=...3936398]HDRip 720p[/url]
Формат: MP4
Видео кодек: H.264
Аудио кодек: AAC
Видео: 960x408 AR:2.35 1583 kbps 23.976 fps
Аудио №1: [Russian] 2ch 48 kHz 128 kbps - [Dub]
Аудио №2: [Russian] 2ch 48 kHz 128 kbps - [MVO] Superbit
Аудио №3: [Russian] 2ch 48 kHz 128 kbps - [VO] Юрий Живов
...last pass...

x264.exe: --pass 2 --bitrate 1583 --preset medium --profile high --level 4.1 --ref 8 --aq-strength 0.9 --deblock -3:-3 --no-chroma-me --direct auto --b-adapt 2 --trellis 2 --no-fast-pskip --no-dct-decimate --qpmin 16 --psy-rd 1.00:0.15 --qcomp 0.65 --vbv-maxrate 50000 --vbv-bufsize 62500 --subme 9 --me umh --rc-lookahead 60 --min-keyint 25 --keyint 240 --colorprim bt709 --transfer bt709 --colormatrix bt709 --sar 1:1 --stats "E:\Enter.the.Dragon.1973.720p.BluRay.9xRus.Eng.HDCLUB.log" --output "E:\Enter.the.Dragon.1973.720p.BluRay.9xRus.Eng.HDCLUB.mp4" "J:\Temp\0166.avs"

avs [info]: 960x408p 1:1 @ 2997/125 fps (cfr)
x264 [info]: using SAR=1/1
x264 [info]: using cpu capabilities: MMX2 SSE2Fast SSSE3 SSE4.2 LZCNT
x264 [info]: profile High, level 4.1

x264 [info]: frame I:1299 Avg QP:20.05 size: 49535
x264 [info]: frame P:40722 Avg QP:21.46 size: 16006
x264 [info]: frame B:105506 Avg QP:23.71 size: 4753
x264 [info]: consecutive B-frames: 1.8% 3.4% 15.9% 78.9%
x264 [info]: mb I I16..4: 5.8% 80.7% 13.4%
x264 [info]: mb P I16..4: 1.5% 8.9% 1.1% P16..4: 50.7% 22.1% 13.7% 0.0% 0.0% skip: 2.0%
x264 [info]: mb B I16..4: 0.1% 1.0% 0.2% B16..8: 43.8% 7.6% 1.9% direct: 5.1% skip:40.4% L0:38.8% L1:51.0% BI:10.2%
x264 [info]: 8x8 transform intra:78.8% inter:66.1%
x264 [info]: direct mvs spatial:98.0% temporal:2.0%
x264 [info]: coded y,uvDC,uvAC intra: 86.9% 80.3% 44.0% inter: 25.0% 30.3% 7.4%
x264 [info]: i16 v,h,dc,p: 35% 18% 12% 36%
x264 [info]: i8 v,h,dc,ddl,ddr,vr,hd,vl,hu: 13% 8% 4% 10% 15% 13% 14% 11% 12%
x264 [info]: i4 v,h,dc,ddl,ddr,vr,hd,vl,hu: 11% 8% 2% 9% 16% 15% 15% 11% 13%
x264 [info]: i8c dc,h,v,p: 37% 25% 22% 16%
x264 [info]: Weighted P-Frames: Y:5.6% UV:1.2%
x264 [info]: ref P L0: 46.1% 14.6% 19.2% 5.4% 5.1% 3.4% 3.6% 2.0% 0.5% 0.0%
x264 [info]: ref B L0: 79.6% 10.6% 4.4% 2.1% 1.5% 1.1% 0.6%
x264 [info]: ref B L1: 94.6% 5.4%
x264 [info]: kb/s:1583.03

x264 [total]: encoded 147527 frames, 12.34 fps, 1583.03 kb/s
GeneralComplete name : E:\Torrents\Enter.the.Dragon.1973.HDRip.x264.960x.rip by Frost O.S.mp4Format : MPEG-4Format profile : Base MediaCodec ID : isomFile size : 1.41 GiBDuration : 1h 42mnOverall bit rate mode : VariableOverall bit rate : 1 975 KbpsMovie name : Enter the Dragon 1973 HDRip x264 960x rip by Frost O SPerformer : Роберт Клауз / Robert ClouseGenre : ActionContentType : Short FilmRecorded date : 26 июля 1973Encoded date : UTC 2015-05-16 15:10:11Tagged date : UTC 2015-05-16 15:15:44Writing application : MkvToMp4 version: 0.224 (x64)Cover : YesComment : rip by Frost O.SLongDescription : События переносят нас на остров, превращенный в крепость главарем боевиков, открывшим там школу боевых искусств, которая является лишь ширмой, маскирующей контрабандный бизнес. В эту цитадель проникает герой Брюса Ли и становится участником жестокого турнира…ContentRating : ru-movie|16+|375|

VideoID : 1Format : AVCFormat/Info : Advanced Video CodecFormat profile : [email protected] settings, CABAC : YesFormat settings, ReFrames : 8 framesCodec ID : avc1Codec ID/Info : Advanced Video CodingDuration : 1h 42mnBit rate : 1 583 KbpsMaximum bit rate : 5 402 KbpsWidth : 960 pixelsHeight : 408 pixelsDisplay aspect ratio : 2.35:1Frame rate mode : ConstantFrame rate : 23.976 fpsColor space : YUVChroma subsampling : 4:2:0Bit depth : 8 bitsScan type : ProgressiveBits/(Pixel*Frame) : 0.169Stream size : 1.13 GiB (80%)Writing library : x264 core 130 r2273 b3065e6Encoding settings : cabac=1 / ref=8 / deblock=1:-3:-3 / analyse=0x3:0x113 / me=umh / subme=9 / psy=1 / psy_rd=1.00:0.15 / mixed_ref=1 / me_range=16 / chroma_me=0 / trellis=2 / 8x8dct=1 / cqm=0 / deadzone=21,11 / fast_pskip=0 / chroma_qp_offset=-3 / threads=3 / lookahead_threads=1 / sliced_threads=0 / nr=0 / decimate=0 / interlaced=0 / bluray_compat=0 / constrained_intra=0 / bframes=3 / b_pyramid=2 / b_adapt=2 / b_bias=0 / direct=3 / weightb=1 / open_gop=0 / weightp=2 / keyint=240 / keyint_min=25 / scenecut=40 / intra_refresh=0 / rc_lookahead=60 / rc=2pass / mbtree=1 / bitrate=1583 / ratetol=1.0 / qcomp=0.65 / qpmin=16 / qpmax=69 / qpstep=4 / cplxblur=20.0 / qblur=0.5 / vbv_maxrate=50000 / vbv_bufsize=62500 / nal_hrd=none / ip_ratio=1.40 / aq=1:0.90Language : EnglishEncoded date : UTC 2015-05-16 15:10:11Tagged date : UTC 2015-05-16 15:12:46Color primaries : BT.709Transfer characteristics : BT.709Matrix coefficients : BT.709

Audio #1ID : 2Format : AACFormat/Info : Advanced Audio CodecFormat profile : LCCodec ID : 40Duration : 1h 42mnBit rate mode : VariableBit rate : 128 KbpsMaximum bit rate : 134 KbpsChannel(s) : 2 channelsChannel positions : Front: L RSampling rate : 48.0 KHzCompression mode : LossyStream size : 93.9 MiB (6%)Title : [Dub]Language : RussianEncoded date : UTC 2015-05-16 15:12:08Tagged date : UTC 2015-05-16 15:12:46

Audio #2ID : 3Format : AACFormat/Info : Advanced Audio CodecFormat profile : LCCodec ID : 40Duration : 1h 42mnBit rate mode : VariableBit rate : 128 KbpsMaximum bit rate : 135 KbpsChannel(s) : 2 channelsChannel positions : Front: L RSampling rate : 48.0 KHzCompression mode : LossyStream size : 93.9 MiB (6%)Title : [MVO] SuperbitLanguage : RussianEncoded date : UTC 2015-05-16 15:12:27Tagged date : UTC 2015-05-16 15:12:46

Audio #3ID : 4Format : AACFormat/Info : Advanced Audio CodecFormat profile : LCCodec ID : 40Duration : 1h 42mnBit rate mode : VariableBit rate : 128 KbpsMaximum bit rate : 133 KbpsChannel(s) : 2 channelsChannel positions : Front: L RSampling rate : 48.0 KHzCompression mode : LossyStream size : 93.9 MiB (6%)Title : [VO] ZhyvovLanguage : RussianEncoded date : UTC 2015-05-16 15:12:36Tagged date : UTC 2015-05-16 15:12:46


Трекер:  [ 17-Май-2015 14:30 ]

  

Скачать .torrent

Размер .torrent файла 14 KB


Размер: 1.41 GB
Хэш (hash) релиза: 4fffa0efafafc89d4110bb8a43a185b162e51fd5

Торренты, похожие на [VIDEO] Выход Дракона Enter the Dragon скачать торрент

Форум Название Автор Размер S L Добавлен
Видео (Фильмы/Клипы) ·· [VIDEO] Выход Дракона / Enter the Dragon (Роберт Клауз / Robert Clouse) [1973, боевик, триллер, драма, криминал, HDRip] [MP4, 480x] Dub Galfimbul 466438402445 MB 0 0 1431864142

15:02

17-Май-15

Еще никто не оставлял запись к записи скачать торрент [VIDEO] Выход Дракона Enter the Dragon . Будь первым!

!Обратная связь