Recent Searches | The Pioneer Woman S17E10 Cowboy Drive-Through 720p HDTV x264-W4F [eztv] | Первые (2017) WEB-DLRip 1080p | Line

Скачать через торрент [VIDEO] Выход Дракона Enter the Dragon бесплатно русская версия torrent активатор

Статистика раздачи
Размер:  445 MB   |    Зарегистрирован:  3 года 2 месяца   |    .torrent скачан:  89 раз   |   
Раздают:  1  
   
загрузка...
 
Автор Сообщение

Galfimbul

avatar Galfimbul


Выход Дракона / Enter the Dragon«Their deadly mission: to crack the forbidden island of Han!»

Год выпуска: 1973
Страна: Гонконг, США
Жанр: боевик, триллер, драма, криминал
Продолжительность: 01:42:33
Перевод: Профессиональный (полное дублирование)
Cубтитры: нет
Режиссер: Роберт Клауз / Robert Clouse
Сценарист: Майкл Аллин / Michael Allin
Оператор: Джил Хуббс / Gil Hubbs
Композитор: Лало Шифрин / Lalo Schifrin
В ролях: Брюс Ли / Bruce Lee (Lee), Кьень Ши / Kien Shih (в титрах: Shih Kien) (Han), Джон Сэксон / John Saxon (Roper), Джим Келли / Jim Kelly (Williams), Боло Йенг / Bolo Yeung (в титрах: Yang Sze) (Bolo), Ана Капри / Ahna Capri (Tania), Анджела Мао / Angela Mao (в титрах: Angela Mao Ying) (Su Lin (Guest star)), Роберт Уолл / Robert Wall (в титрах: Bob Wall) (Oharra), Бетти Чюн / Betty Chung (Mei Ling) и другие .
Бюджет: $850 000Сборы в США: $25 000 000Зрители: 14.1 млн, 4.44 млн, 1.7 млнПремьера (мир): 26 июля 1973Релиз на DVD: 27 марта 2001, «Мост-Видео»
Описание: События переносят нас на остров, превращенный в крепость главарем боевиков, открывшим там школу боевых искусств, которая является лишь ширмой, маскирующей контрабандный бизнес. В эту цитадель проникает герой Брюса Ли и становится участником жестокого турнира…
Релиз группы
Качество: HDRip / [url=...3936398]HDRip 720p[/url]
Формат: MP4
Видео кодек: XviD
Аудио кодек: AAC
Видео: 480x200 AR:2.40 475 kbps 23.976 fps
Аудио: [Russian] 2ch 48 kHz 128 kbps - [Dub]
GeneralComplete name : E:\Torrents\Enter.the.Dragon.1973.HDRip.XviD.480x.rip by Frost O.S.mp4Format : MPEG-4Format profile : Base MediaCodec ID : isomFile size : 445 MiBDuration : 1h 42mnOverall bit rate mode : VariableOverall bit rate : 606 KbpsMovie name : Enter the Dragon 1973 HDRip XviD 480x rip by Frost O SPerformer : Роберт Клауз / Robert ClouseGenre : ActionContentType : Short FilmRecorded date : 26 июля 1973Encoded date : UTC 2015-05-16 15:19:45Tagged date : UTC 2015-05-16 15:22:00Writing application : MkvToMp4 version: 0.224 (x64)Cover : YesComment : rip by Frost O.SLongDescription : События переносят нас на остров, превращенный в крепость главарем боевиков, открывшим там школу боевых искусств, которая является лишь ширмой, маскирующей контрабандный бизнес. В эту цитадель проникает герой Брюса Ли и становится участником жестокого турнира…ContentRating : ru-movie|16+|375|

VideoID : 1Format : MPEG-4 VisualFormat profile : Advanced [email protected] settings, BVOP : YesFormat settings, QPel : NoFormat settings, GMC : No warppointsFormat settings, Matrix : CustomCodec ID : 20Duration : 1h 42mnBit rate mode : VariableBit rate : 474 KbpsMaximum bit rate : 2 176 KbpsWidth : 480 pixelsHeight : 200 pixelsDisplay aspect ratio : 2.40:1Frame rate mode : ConstantFrame rate : 23.976 fpsColor space : YUVChroma subsampling : 4:2:0Bit depth : 8 bitsScan type : ProgressiveCompression mode : LossyBits/(Pixel*Frame) : 0.206Stream size : 348 MiB (78%)Writing library : XviD 73Language : EnglishTagged date : UTC 2015-05-16 15:20:46

AudioID : 2Format : AACFormat/Info : Advanced Audio CodecFormat profile : LCCodec ID : 40Duration : 1h 42mnBit rate mode : VariableBit rate : 128 KbpsMaximum bit rate : 134 KbpsChannel(s) : 2 channelsChannel positions : Front: L RSampling rate : 48.0 KHzCompression mode : LossyStream size : 93.9 MiB (21%)Title : [Dub]Language : RussianEncoded date : UTC 2015-05-16 15:20:43Tagged date : UTC 2015-05-16 15:20:46


Трекер:  [ 17-Май-2015 14:30 ]

  

Скачать .torrent

Размер .torrent файла 18 KB


Размер: 445 MB
Хэш (hash) релиза: 2aec027562b21baad0be283ab1449d0b31bda902

Торренты, похожие на [VIDEO] Выход Дракона Enter the Dragon скачать торрент

Форум Название Автор Размер S L Добавлен
Видео (Фильмы/Клипы) ·· [VIDEO] Выход Дракона / Enter the Dragon (Роберт Клауз / Robert Clouse) [1973, боевик, триллер, драма, криминал, HDRip] [MP4, 960x] Dub, MVO, VO Живов Galfimbul 15190356091.41 GB 0 0 1431864147

15:02

17-Май-15

Еще никто не оставлял запись к записи скачать торрент [VIDEO] Выход Дракона Enter the Dragon . Будь первым!

!Обратная связь