Карточные | Junjou Romantica | Michael B. Jordan

Скачать через торрент [VIDEO] Письма с Иводзимы Letters from Iwo Jima бесплатно русская версия torrent активатор

Статистика раздачи
Размер:  845 MB   |    Зарегистрирован:  3 года 2 месяца   |    .torrent скачан:  82 раза   |   
Раздают:  1  
   
загрузка...
 
Автор Сообщение

Galfimbul

avatar Galfimbul


Письма с Иводзимы / Letters from Iwo Jima
Год выпуска: 2006

Страна:
Жанр: драма, военный, история
Продолжительность: 02:20:37
Перевод: Профессиональный (многоголосый закадровый) Киномания
Cубтитры: нет
Режиссер: Клинт Иствуд / Clint Eastwood
В ролях: Кен Ватанабе, Кадзунари Ниномия, Рё Касэ, Цуёси Ихара, Сидо Накамура, Хироши Ватанабэ, Такуми Бандо, Юки Мацудзаки, Такаши Ямагути, Эйдзиро Озаки Вторая часть дилогии Клинта Иствуда, посвященной ключевому эпизоду американской тихоокеанской кампании в годы Второй мировой войны - битве за остров Иводзима. Фильм поставлен по книге, составленной из писем генерала императорской японской армии Тадамичи Курибаяши, возглавлявшем оборону Иводзимы (в фильме его роль играет Кен Ватанабе).

Другой взгляд на трагическую битву при Иводзиме, ставшую не только историческим событием, переломным моментом в ходе Тихоокеанской кампании США против Японии, но и столкновением культур и мировоззрений.

Февраль 1945-го. Война в Европе подходила к концу, а на тихоокеанском направлении она была в самом разгаре. Островок Иводзима стал для США последним плацдармом на пути к Японии, и битва за него стала одним из самых кровопролитных сражений кампании. Этот фильм показывает нам битву за остров глазами японских солдат и офицеров, которые до последней капли крови защищали свою землю и погибли во славу Японской Империи.Кинопоиск | IMDB
[b]Качество: HDRip
Исходник: Letters.from.Iwo.Jima.2006.720p.BDRip HDclub
Формат: MP4
Видео: AVC, 640x264 (2,40:1), 709 kbps, 23,976fps
Аудио: Русский [Многоголосый], AAC, 48kHz, (2 ch), 128,0 kbps[/b]
ОбщееПолное имя : Letters from Iwo Jima 2006.mp4Формат : MPEG-4Профиль формата : Base MediaИдентификатор кодека : isomРазмер файла : 845 МбайтПродолжительность : 2 ч. 20 м.Режим общего битрейта : ПеременныйОбщий поток : 840 Кбит/секДата кодирования : UTC 2015-05-13 14:15:22Дата пометки : UTC 2015-05-13 14:15:22

ВидеоИдентификатор : 1Формат : AVCФормат/Информация : Advanced Video CodecПрофиль формата : [email protected]Параметр CABAC формата : ДаПараметр ReFrames формата : 10 кадровИдентификатор кодека : avc1Идентификатор кодека/Информация : Advanced Video CodingПродолжительность : 2 ч. 20 м.Битрейт : 709 Кбит/секМаксимальный битрейт : 3705 Кбит/секШирина : 640 пикселейВысота : 264 пикселяСоотношение сторон : 2,40:1Режим частоты кадров : ПостоянныйЧастота кадров : 23,976 кадра/секЦветовое пространство : YUVСубдискретизация насыщенности : 4:2:0Битовая глубина : 8 битТип развёртки : ПрогрессивнаяБит/(Пиксели*Кадры) : 0.175Размер потока : 713 Мбайт (84%)Заголовок : [email protected]-DEV-rev248-g39d5978-masterБиблиотека кодирования : x264 core 146 r2538 121396cДата кодирования : UTC 2015-05-13 14:15:22Дата пометки : UTC 2015-05-13 14:15:55

АудиоИдентификатор : 2Формат : AACФормат/Информация : Advanced Audio CodecПрофиль формата : LCИдентификатор кодека : 40Продолжительность : 2 ч. 20 м.Вид битрейта : ПеременныйБитрейт : 128 Кбит/секМаксимальный битрейт : 183 Кбит/секКаналы : 2 каналаРасположение каналов : Front: L RЧастота : 48,0 КГцМетод сжатия : С потерямиРазмер потока : 129 Мбайт (15%)Дата кодирования : UTC 2015-05-13 08:31:41Дата пометки : UTC 2015-05-13 14:15:55
[url=...5005460]Флаги наших отцов / Flags Of Our Fathers 2006[/url]

Трекер:  [ 14-Май-2015 11:00 ]

  

Скачать .torrent

Размер .torrent файла 17 KB


Размер: 845 MB
Хэш (hash) релиза: ba50d98de510f5cfab718d74af3129eb3d337409

Еще никто не оставлял запись к записи скачать торрент [VIDEO] Письма с Иводзимы Letters from Iwo Jima . Будь первым!

!Обратная связь