Photographer's Guide to the Fujifilm FinePix X100 | W blasku nocy / Midnight Sun (2018) [BDRip] [Xvid-KiT] [Lektor PL] | Anne auf Green Gables

Скачать через торрент [VIDEO] Флаги наших отцов Flags Of Our Fathers бесплатно русская версия torrent активатор

Статистика раздачи
Размер:  996 MB   |    Зарегистрирован:  3 года 2 месяца   |    .torrent скачан:  33 раза   |   
Раздают:  1  
   
загрузка...
 
Автор Сообщение

Galfimbul

avatar Galfimbul


Флаги наших отцов / Flags Of Our Fathers
Год выпуска: 2006

Страна:
Жанр: драма, военный, история
Продолжительность: 02:11:53
Перевод: Профессиональный (многоголосый закадровый)
Cубтитры: нет
Режиссер: Клинт Иствуд / Clint Eastwood
В ролях: Райан Филипп, Джессе Брэдфорд, Адам Бич, Джон Бенджамин Хикки, Джон Слаттери, Барри Пеппер, Джейми Белл, Пол Уокер, Роберт Патрик, Билл МакДоно, Мелани Лински Первая часть дилогии Клинта Иствуда, посвященной ключевому эпизоду американской тихоокеанской кампании в годы Второй мировой войны - битве за остров Иводзима, создана на основе книги Джеймса Брэдли и Рона Пауэрса "Флаги наших отцов: Герои Иводзимы".

История жизни шести американских пехотинцев, водрузивших флаг на вершине горы Сурибачи во время битвы при Иводзиме. Операция по овладению островом Иводзима стала переломным моментом в ходе Тихоокеанской кампании США против Японии весной 1945 года…Кинопоиск | IMDB
[b]Качество: HDRip
Исходник: Flags.of.Our.Fathers.BluRay.720p HDclub
Формат: MP4
Видео: AVC, 640x264 (2,40:1), 925 kbps, 23,976fps
Аудио: Русский [Многоголосый, R5], AAC, 48kHz, (2 ch), 128,0 kbps[/b]
ОбщееПолное имя : Flags of Our Fathers 2006.mp4Формат : MPEG-4Профиль формата : Base MediaИдентификатор кодека : isomРазмер файла : 996 МбайтПродолжительность : 2 ч. 11 м.Режим общего битрейта : ПеременныйОбщий поток : 1056 Кбит/секДата кодирования : UTC 2015-05-14 01:08:38Дата пометки : UTC 2015-05-14 01:08:38

ВидеоИдентификатор : 1Формат : AVCФормат/Информация : Advanced Video CodecПрофиль формата : [email protected]Параметр CABAC формата : ДаПараметр ReFrames формата : 10 кадровИдентификатор кодека : avc1Идентификатор кодека/Информация : Advanced Video CodingПродолжительность : 2 ч. 11 м.Битрейт : 925 Кбит/секМаксимальный битрейт : 5205 Кбит/секШирина : 640 пикселейВысота : 264 пикселяСоотношение сторон : 2,40:1Режим частоты кадров : ПостоянныйЧастота кадров : 23,976 кадра/секЦветовое пространство : YUVСубдискретизация насыщенности : 4:2:0Битовая глубина : 8 битТип развёртки : ПрогрессивнаяБит/(Пиксели*Кадры) : 0.228Размер потока : 871 Мбайт (88%)Заголовок : [email protected]-DEV-rev248-g39d5978-masterБиблиотека кодирования : x264 core 146 r2538 121396cДата кодирования : UTC 2015-05-14 01:08:38Дата пометки : UTC 2015-05-14 01:10:24

АудиоИдентификатор : 2Формат : AACФормат/Информация : Advanced Audio CodecПрофиль формата : LCИдентификатор кодека : 40Продолжительность : 2 ч. 11 м.Вид битрейта : ПеременныйБитрейт : 128 Кбит/секМаксимальный битрейт : 201 Кбит/секКаналы : 2 каналаРасположение каналов : Front: L RЧастота : 48,0 КГцМетод сжатия : С потерямиРазмер потока : 121 Мбайт (12%)Дата кодирования : UTC 2015-05-13 18:31:34Дата пометки : UTC 2015-05-14 01:10:24
[url=]Письма с Иводзимы / Letters from Iwo Jima 2006[/url]

Трекер:  [ 14-Май-2015 10:30 ]

  

Скачать .torrent

Размер .torrent файла 20 KB


Размер: 996 MB
Хэш (hash) релиза: 55387b9748226aaf14cfa670c7b9ea7df87e6380

Еще никто не оставлял запись к записи скачать торрент [VIDEO] Флаги наших отцов Flags Of Our Fathers . Будь первым!

!Обратная связь