Mobile Suit Gundam: ... | Ian Wolfe | ARN – Der Kreuzritter

Скачать через торрент [ANIME] Ковбой Бибоп Cowboy Bebop бесплатно русская версия torrent активатор

Статистика раздачи
Размер:  2.86 GB   |    Зарегистрирован:  3 года 2 месяца   |    .torrent скачан:  106 раз   |   
Раздают:  1  
   
загрузка...
 
Автор Сообщение

Galfimbul

avatar Galfimbul


Ковбой Бибоп / Cowboy Bebop
Год выпуска: 1998

Страна:
Жанр: аниме, мультфильм, фантастика, приключения
Продолжительность: 26x~25 мин
Перевод: Одноголосый закадровый Е. Лурье
Cубтитры: нет
Режиссер: Синъитиро Ватанабэ / Shinichirô Watanabe
В ролях: Стивен Блум, Биу Биллингсли, Коити Ямадера, Уншо Ишизука, Уэнди Ли, Мэгуми Хаясибара, Мелисса Чарльз, Аой Тада, Тиба Иссин, Джордж С. Коул Джет Блэк, бывший полицейский, и Спайк Шпигель, человек с тёмным прошлым, совершенно не планировали увеличивать экипаж космического корабля Бибоп, являющегося для них домом и средством передвижения. Но сети, раскинутые для поимки дорогостоящих отбросов общества, принесли им Фэй Валентайн — очаровательную картёжницу с колоссальным долгом, Эд — потерявшуюся компьютерную умницу и Эйн — предположительно, самую умную собаку на свете. Именно в таком составе экипаж Бибопа и продолжает своё дело — охоту за головами. Их приключения носят комичный, философский, а подчас и трагичный характер…Кинопоиск | IMDB
[b]Качество: HDRip
Исходник: Cowboy.Bebop.TV.Series.1998.720p.BluRay HDclub
Формат: MP4
Видео: AVC, 480x360 (4:3), 512 kbps, 23,976fps
Аудио: Русский [Одноголосый], AAC, 48kHz, (2 ch), 128,0 kbps[/b]
01. Asteroid Blues
02. Stray Dog Strut
03. Honky Tonk Women
04. Gateway Shuffle
05. Ballad of Fallen Angels
06. Sympathy for the Devil
07. Heavy Metal Queen
08. Waltz for Venus
09. Jamming with Edward
10. Ganymede Elegy
11. Toys in the Attic
12. Jupiter Jazz: Part 1
13. Jupiter Jazz: Part 2
14. Bohemian Rhapsody
15. My Funny Valentine
16. Black Dog Serenade
17. Mushroom Samba
18. Speak Like a Child
19. Wild Horses
20. Pierrot le Fou
21. Boogie-Woogie Feng-Shui
22. Cowboy Funk
23. Brain Scratch
24. Hard Luck Woman
25. The Real Folk Blues: Part 1
26. The Real Folk Blues: Part 2

ОбщееПолное имя : Cowboy.Bebop.TV.Series.Ep13.1998.mp4Формат : MPEG-4Профиль формата : Base MediaИдентификатор кодека : isomРазмер файла : 114 МбайтПродолжительность : 24 м.Режим общего битрейта : ПеременныйОбщий поток : 643 Кбит/секДата кодирования : UTC 2015-05-10 19:48:35Дата пометки : UTC 2015-05-10 19:48:35

ВидеоИдентификатор : 1Формат : AVCФормат/Информация : Advanced Video CodecПрофиль формата : [email protected]Параметр CABAC формата : ДаПараметр ReFrames формата : 10 кадровИдентификатор кодека : avc1Идентификатор кодека/Информация : Advanced Video CodingПродолжительность : 24 м.Битрейт : 512 Кбит/секМаксимальный битрейт : 4665 Кбит/секШирина : 480 пикселейВысота : 360 пикселейСоотношение сторон : 4:3Режим частоты кадров : ПостоянныйЧастота кадров : 23,976 кадра/секЦветовое пространство : YUVСубдискретизация насыщенности : 4:2:0Битовая глубина : 8 битТип развёртки : ПрогрессивнаяБит/(Пиксели*Кадры) : 0.124Размер потока : 90,4 Мбайт (80%)Заголовок : [email protected]-DEV-rev248-g39d5978-masterБиблиотека кодирования : x264 core 146 r2538 121396cДата кодирования : UTC 2015-05-10 19:48:35Дата пометки : UTC 2015-05-10 19:48:44

АудиоИдентификатор : 2Формат : AACФормат/Информация : Advanced Audio CodecПрофиль формата : LCИдентификатор кодека : 40Продолжительность : 24 м.Вид битрейта : ПеременныйБитрейт : 128 Кбит/секМаксимальный битрейт : 232 Кбит/секКаналы : 2 каналаРасположение каналов : Front: L RЧастота : 48,0 КГцМетод сжатия : С потерямиРазмер потока : 22,6 Мбайт (20%)Дата кодирования : UTC 2015-05-10 18:49:38Дата пометки : UTC 2015-05-10 19:48:44


Трекер:  [ 11-Май-2015 16:30 ]

  

Скачать .torrent

Размер .torrent файла 16 KB


Размер: 2.86 GB
Хэш (hash) релиза: fbc7acdaf53f8cd01c3cfc670aa4f6191df8cb25

Еще никто не оставлял запись к записи скачать торрент [ANIME] Ковбой Бибоп Cowboy Bebop . Будь первым!

!Обратная связь