1x11 Luis Miguel: La Serie | Фентези | Amira Casar

Скачать через торрент [VIDEO] Спасение The Salvation бесплатно русская версия torrent активатор

Статистика раздачи
Размер:  510 MB   |    Зарегистрирован:  3 года 2 месяца   |    .torrent скачан:  55 раз   |   
Раздают:  1  
   
загрузка...
 
Автор Сообщение

Galfimbul

avatar Galfimbul


Спасение / The Salvation
Год выпуска: 2014

Страна: Дания, Великобритания, ЮАР
Жанр: драма, вестерн
Продолжительность: 01:31:51
Перевод: Авторский (одноголосый закадровый) Ю.Сербин
Cубтитры: нет
Режиссер: Кристиан Левринг / Kristian Levring
В ролях: Мадс Миккельсен, Ева Грин, Джеффри Дин Морган, Эрик Кантона, Микаэл Персбрандт, Дуглас Хеншэлл, Майкл Рэймонд-Джеймс, Джонатан Прайс, Александр Арнольд, Нанна Оланд Фабрициус Джон, фермер, чья семья убита, дает клятву отомстить, выслеживает и наказывает убийцу. Его действия запускают цепочку насилия: лидер местной банды со своими напарниками решает расправиться с Джоном и его деревней.Кинопоиск | IMDB
[b]Качество: HDRip
Исходник: The.Salvation.2014.720p.BluRay HDclub
Формат: MP4
Видео: AVC, 640x264 (2,40:1), 679 kbps, 25,000fps
Аудио: Русский [Одноголосый], AAC, 48kHz, (2 ch), 123,0 kbps[/b]
ОбщееПолное имя : The Salvation 2014.mp4Формат : MPEG-4Профиль формата : Base MediaИдентификатор кодека : isomРазмер файла : 510 МбайтПродолжительность : 1 ч. 31 м.Режим общего битрейта : ПеременныйОбщий поток : 776 Кбит/секДата кодирования : UTC 2015-05-06 13:14:08Дата пометки : UTC 2015-05-06 13:14:08

ВидеоИдентификатор : 1Формат : AVCФормат/Информация : Advanced Video CodecПрофиль формата : [email protected]Параметр CABAC формата : ДаПараметр ReFrames формата : 10 кадровИдентификатор кодека : avc1Идентификатор кодека/Информация : Advanced Video CodingПродолжительность : 1 ч. 27 м.Битрейт : 679 Кбит/секМаксимальный битрейт : 3870 Кбит/секШирина : 640 пикселейВысота : 264 пикселяСоотношение сторон : 2,40:1Режим частоты кадров : ПостоянныйЧастота кадров : 25,000 кадров/секЦветовое пространство : YUVСубдискретизация насыщенности : 4:2:0Битовая глубина : 8 битТип развёртки : ПрогрессивнаяБит/(Пиксели*Кадры) : 0.161Размер потока : 427 Мбайт (84%)Заголовок : [email protected]-DEV-rev248-g39d5978-masterБиблиотека кодирования : x264 core 146 r2538 121396cДата кодирования : UTC 2015-05-06 13:14:08Дата пометки : UTC 2015-05-06 13:15:01

АудиоИдентификатор : 2Формат : AACФормат/Информация : Advanced Audio CodecПрофиль формата : LCИдентификатор кодека : 40Продолжительность : 1 ч. 31 м.Вид битрейта : ПеременныйБитрейт : 123 Кбит/секМаксимальный битрейт : 195 Кбит/секКаналы : 2 каналаРасположение каналов : Front: L RЧастота : 48,0 КГцМетод сжатия : С потерямиРазмер потока : 80,5 Мбайт (16%)Дата кодирования : UTC 2015-05-06 08:50:41Дата пометки : UTC 2015-05-06 13:15:01


Трекер:  [ 06-Май-2015 19:30 ]

  

Скачать .torrent

Размер .torrent файла 20 KB


Размер: 510 MB
Хэш (hash) релиза: a7a05c577e7d023707fd267e8cccfd9234c24a3e

Еще никто не оставлял запись к записи скачать торрент [VIDEO] Спасение The Salvation . Будь первым!

!Обратная связь