IMDb: 5.3 HD Ray Meets Helen | Download | Time After Time

Скачать через торрент [VIDEO] Лекарь: Ученик Авиценны The Physician бесплатно русская версия torrent активатор

Статистика раздачи
Размер:  1024 MB   |    Зарегистрирован:  3 года 2 месяца   |    .torrent скачан:  33 раза   |   
Раздают:  1  
   
загрузка...
 
Автор Сообщение

Galfimbul

avatar Galfimbul


Лекарь: Ученик Авиценны / The Physician
Год выпуска: 2013

Страна:
Жанр: драма, приключения
Продолжительность: 02:35:06
Перевод: Профессиональный (дублированный)
Cубтитры: нет
Режиссер: Филипп Штёльцль / Philipp Stolzl
В ролях: Том Пэйн, Бен Кингсли, Эмма Ригби, Стеллан Скарсгард, Оливье Мартинес, Элиас ЭмБарек, Майкл Джибсон, Стэнли Таунсенд, Майкл Маркус Морган, Адам Томас Райт Англия, XI век. Мать десятилетнего Роба Коула умирает в страшных мучениях: никто не знает ни природы её болезни, ни лекарства против неё. Маленький Роб, потрясенный до глубины души, во что бы то ни стало стремится разгадать эту тайну.

Ему суждено пройти долгий путь, от Англии до Персии, его учителями становятся сначала обыкновенный шарлатан Барбер, а потом - великий лекарь Авиценна. Мудрый учитель видит в Робе необыкновенный талант к медицине, но советует ему не спешить делать вещи, которые не соответствуют веку. Но Роб ни перед чем не останавливается в своем желании научиться спасать людей от смерти, и над его собственной жизнью нависает угроза, ведь он дважды пошел против предрассудков: использовал для научных исследований тело человека и полюбил женщину, отданную в жены другому.Кинопоиск | IMDB
[b]Качество: HDRip
Исходник: The.Physician.2013.720p.BluRay HDclub
Формат: MP4
Видео: AVC, 640x272 (2,35:1), 792 kbps, 24,000fps
Аудио: Русский [Дубляж], AAC, 48kHz, (2 ch), 128,0 kbps[/b]
ОбщееПолное имя : The Physician 2013.mp4Формат : MPEG-4Профиль формата : Base MediaИдентификатор кодека : isomРазмер файла : 1024 МбайтПродолжительность : 2 ч. 35 м.Режим общего битрейта : ПеременныйОбщий поток : 923 Кбит/секДата кодирования : UTC 2015-05-04 20:59:29Дата пометки : UTC 2015-05-04 20:59:29

ВидеоИдентификатор : 1Формат : AVCФормат/Информация : Advanced Video CodecПрофиль формата : [email protected]Параметр CABAC формата : ДаПараметр ReFrames формата : 10 кадровИдентификатор кодека : avc1Идентификатор кодека/Информация : Advanced Video CodingПродолжительность : 2 ч. 35 м.Битрейт : 792 Кбит/секМаксимальный битрейт : 5168 Кбит/секШирина : 640 пикселейВысота : 272 пикселяСоотношение сторон : 2,35:1Режим частоты кадров : ПостоянныйЧастота кадров : 24,000 кадра/секЦветовое пространство : YUVСубдискретизация насыщенности : 4:2:0Битовая глубина : 8 битТип развёртки : ПрогрессивнаяБит/(Пиксели*Кадры) : 0.190Размер потока : 878 Мбайт (86%)Заголовок : [email protected]-DEV-rev248-g39d5978-masterБиблиотека кодирования : x264 core 146 r2538 121396cДата кодирования : UTC 2015-05-04 20:59:29Дата пометки : UTC 2015-05-04 21:00:46

АудиоИдентификатор : 2Формат : AACФормат/Информация : Advanced Audio CodecПрофиль формата : LCИдентификатор кодека : 40Продолжительность : 2 ч. 35 м.Вид битрейта : ПеременныйБитрейт : 128 Кбит/секМаксимальный битрейт : 199 Кбит/секКаналы : 2 каналаРасположение каналов : Front: L RЧастота : 48,0 КГцМетод сжатия : С потерямиРазмер потока : 142 Мбайт (14%)Дата кодирования : UTC 2015-05-04 14:17:13Дата пометки : UTC 2015-05-04 21:00:46


Трекер:  [ 05-Май-2015 17:30 ]

  

Скачать .torrent

Размер .torrent файла 20 KB


Размер: 1024 MB
Хэш (hash) релиза: 756ae412218f0e9de34cc1dacf54138a33c82724

Еще никто не оставлял запись к записи скачать торрент [VIDEO] Лекарь: Ученик Авиценны The Physician . Будь первым!

!Обратная связь