Date d'ajout | Электронная музыка (Клипы) | Jumanji 3D BluRay 3D 1080p

Скачать через торрент [VIDEO] Зловещие мертвецы: Трилогия The Evil Dead: Trilogy бесплатно русская версия torrent активатор

Статистика раздачи
Размер:  3.73 GB   |    Зарегистрирован:  3 года 2 месяца   |    .torrent скачан:  137 раз   |   
Раздают:  1  
   
загрузка...
 
Автор Сообщение

Galfimbul

avatar Galfimbul


Зловещие мертвецы: Трилогия / The Evil Dead: Trilogy

Зловещие мертвецы / The Evil Dead«The Ultimate Experience In Grueling Terror»

Год выпуска: 1981
Страна: США
Жанр: ужасы
Продолжительность: 01:25:26
Перевод №1: Профессиональный (многоголосый закадровый)
Перевод №3: Профессиональный (двухголосый закадровый) П. Гланц и И. Королёва
Перевод №2: Авторский (одноголосый закадровый) Д. Пучков (Гоблин)
Cубтитры: нет
Режиссер: Сэм Рэйми / Sam Raimi
В ролях: Брюс Кэмпбелл / Bruce Campbell, Эллен Сэндвайсс / Ellen Sandweiss, Ричард ДеМэннинкор / Richard DeManincor,
Бетси Бейкер / Betsy Baker, Тереза Тилли / Theresa Tilly, Филип А. Гиллис / Philip A. Gillis, Дороти Тейперт / Dorothy Tapert, Шерил Гаттридж / Cheryl Guttridge, Барбара Кэри / Barbara Carey, Дэвид Хортон / David Horton, Уэндал Томас / Wendall Thomas и другие .
Описание: Молодые люди снимают на выходные загородный дом. Находится он в непролазной глуши, выглядит мрачно, а кругом — ни души. Аренда стоит копейки, но не потому, что он того и гляди развалится…

Раньше здесь жил археолог, после которого в подвале остались различные мистические артефакты. Например, книга мертвых, предметы неизвестных магических культов и магнитофон с записью заклинания на непонятном языке. Ребята запись прослушали… С наступлением темноты им предстоит встретиться с духами, которых они разбудили !
Релиз группы
Качество: BDRip / [url=...3167852]BDRemux 1080p[/url]
Формат: MP4
Видео кодек: H.264
Аудио кодек: AAC
Видео: 960x520 AR:1.85 1740 kbps, 23.976 fps
Аудио №1: [Russian] 2ch 48 kHz 128 kbps - [MVO]
Аудио №2: [Russian] 2ch 48 kHz 128 kbps - [DVO]
Аудио №3: [Russian] 2ch 48 kHz 128 kbps - [VO]
...last pass...

x264.exe: --pass 2 --bitrate 1740 --preset medium --profile high --level 4.1 --ref 8 --aq-strength 0.7 --deblock -1:-1 --merange 24 --no-chroma-me --direct auto --b-adapt 2 --trellis 2 --no-fast-pskip --no-dct-decimate --qpmin 16 --psy-rd 1.00:0.15 --vbv-maxrate 50000 --vbv-bufsize 62500 --subme 9 --me umh --rc-lookahead 60 --min-keyint 25 --keyint 240 --colorprim bt709 --transfer bt709 --colormatrix bt709 --sar 1:1 --stats "E:\Зловещие мертвецы 1 (1981.The Evil Dead).log" --output "E:\Зловещие мертвецы 1 (1981.The Evil Dead).mp4" "J:\Temp\0144.avs"

avs [info]: 960x520p 1:1 @ 2997/125 fps (cfr)
x264 [info]: using SAR=1/1
x264 [info]: using cpu capabilities: MMX2 SSE2Fast SSSE3 SSE4.2 LZCNT
x264 [info]: profile High, level 4.1

x264 [info]: frame I:1038 Avg QP:21.53 size: 43879
x264 [info]: frame P:35075 Avg QP:23.38 size: 16253
x264 [info]: frame B:86791 Avg QP:25.32 size: 5749
x264 [info]: consecutive B-frames: 1.9% 3.5% 24.7% 69.8%
x264 [info]: mb I I16..4: 21.3% 69.8% 8.9%
x264 [info]: mb P I16..4: 1.4% 7.7% 0.5% P16..4: 48.2% 16.0% 13.3% 0.0% 0.0% skip:13.1%
x264 [info]: mb B I16..4: 0.1% 1.0% 0.1% B16..8: 43.4% 5.6% 1.5% direct: 4.0% skip:44.4% L0:43.7% L1:52.2% BI: 4.1%
x264 [info]: 8x8 transform intra:80.3% inter:69.1%
x264 [info]: direct mvs spatial:97.7% temporal:2.3%
x264 [info]: coded y,uvDC,uvAC intra: 81.2% 70.5% 40.3% inter: 20.9% 20.7% 5.5%
x264 [info]: i16 v,h,dc,p: 34% 23% 10% 33%
x264 [info]: i8 v,h,dc,ddl,ddr,vr,hd,vl,hu: 9% 4% 4% 12% 18% 15% 15% 11% 11%
x264 [info]: i4 v,h,dc,ddl,ddr,vr,hd,vl,hu: 8% 4% 2% 11% 18% 16% 15% 12% 13%
x264 [info]: i8c dc,h,v,p: 43% 23% 18% 16%
x264 [info]: Weighted P-Frames: Y:9.7% UV:2.8%
x264 [info]: ref P L0: 44.6% 10.5% 19.6% 6.7% 6.3% 4.5% 4.7% 2.3% 0.9% 0.1%
x264 [info]: ref B L0: 71.4% 13.7% 6.6% 3.3% 2.4% 1.8% 0.8%
x264 [info]: ref B L1: 92.7% 7.3%
x264 [info]: kb/s:1739.38

x264 [total]: encoded 122904 frames, 8.12 fps, 1739.38 kb/s
GeneralComplete name : E:\Torrents\The Evil Dead.Trilogy.BDRip.x264.960x\The Evil Dead.1981.BDRip.x264.960x.rip by Frost O.S.mp4Format : MPEG-4Format profile : Base MediaCodec ID : isomFile size : 1.27 GiBDuration : 1h 25mnOverall bit rate mode : VariableOverall bit rate : 2 131 KbpsMovie name : The Evil Dead 1981,BDRip x264 960x rip by Frost O SPerformer : / Брюс КэмпбеллGenre : HorrorContentType : Short FilmRecorded date : 15 октября 1981Encoded date : UTC 2015-05-02 17:01:31Tagged date : UTC 2015-05-02 17:05:51Writing application : MkvToMp4 version: 0.224 (x64)Cover : YesComment : rip by Frost O.SLongDescription : Молодые люди снимают на выходные загородный дом. Находится он в непролазной глуши, выглядит мрачно, а кругом — ни души. Аренда стоит копейки, но не потому, что он того и гляди развалится… Раньше здесь жил археолог, после которого в подвале остались различные мистические артефакты. Например, книга мертвых, предметы неизвестных магических культов и магнитофон с записью заклинания на непонятном языке. Ребята запись прослушали… С наступлением темноты им предстоит встретиться с духами, которых они разбудили!ContentRating : ru-movie|18+|400|iTunMOVI : <?xml version="1.0" encoding="UTF-8"?> / <!DOCTYPE plist PUBLIC "-//Apple//DTD PLIST 1.0//EN" "http://www.apple.com/DTDs/PropertyList-1.0.dtd"> / <plist version="1.0"> / <dict> / <key>cast</key> / <array> / <dict> / <key>name</key> / <string>Брюс Кэмпбелл / Bruce Campbell</string> / </dict> / <dict> / <key>name</key> / <string>Эллен Сэндвайсс / Ellen Sandweiss</string> / </dict> / <dict> / <key>name</key> / <string>Ричард ДеМэннинкор / Richard DeManincor</string> / </dict> / <dict> / <key>name</key> / <string>Бетси Бейкер / Betsy Baker</string> / </dict> / <dict> / <key>name</key> / <string>Тереза Тилли / Theresa Tilly</string> / </dict> / <dict> / <key>name</key> / <string>Филип А. Гиллис / Philip A. Gillis</string> / </dict> / <dict> / <key>name</key> / <string>Дороти Тейперт / Dorothy Tapert</string> / </dict> / <dict> / <key>name</key> / <string>Шерил Гаттридж / Cheryl Guttridge</string> / </dict> / <dict> / <key>name</key> / <string>Барбара Кэри / Barbara Carey</string> / </dict> / <dict> / <key>name</key> / <string>Дэвид Хортон / David Horton</string> / </dict> / <dict> / <key>name</key> / <string>Уэндал Томас / Wendall Thomas</string> / </dict> / </array> / <key>directors</key> / <array> / <dict> / <key>name</key> / <string>Сэм Рэйми / Sam Raimi</string> / </dict> / </array> / <key>producers</key> / <array> / <dict> / <key>name</key> / <string>Брюс Кэмпбелл / / Bruce Campbell</string> / </dict> / <dict> / <key>name</key> / <string>Гари Холт / / Gary Holt</string> / </dict> / <dict> / <key>name</key> / <string>Сэм Рэйми / / Sam Raimi</string> / </dict> / <dict> / <key>name</key> / <string>Роберт Дж. Тейперт / / Robert G. Tapert</string> / </dict> / <dict> / <key>name</key> / <string>Ирвин Шапиро / / Irvin Shapiro</string> / </dict> / </array> / <key>screenwriters</key> / <array> / <dict> / <key>name</key> / <string>Сэм Рэйми / / Sam Raimi</string> / </dict> / <dict> / <key>name</key> / <string>Тим Фило / / Tim Philo</string> / </dict> / </array> / </dict> / </plist>

VideoID : 1Format : AVCFormat/Info : Advanced Video CodecFormat profile : [email protected]rmat settings, CABAC : YesFormat settings, ReFrames : 8 framesCodec ID : avc1Codec ID/Info : Advanced Video CodingDuration : 1h 25mnBit rate : 1 740 KbpsMaximum bit rate : 7 434 KbpsWidth : 960 pixelsHeight : 520 pixelsDisplay aspect ratio : 1.85:1Frame rate mode : ConstantFrame rate : 23.976 fpsColor space : YUVChroma subsampling : 4:2:0Bit depth : 8 bitsScan type : ProgressiveBits/(Pixel*Frame) : 0.145Stream size : 1.04 GiB (82%)Writing library : x264 core 130 r2273 b3065e6Encoding settings : cabac=1 / ref=8 / deblock=1:-1:-1 / analyse=0x3:0x113 / me=umh / subme=9 / psy=1 / psy_rd=1.00:0.15 / mixed_ref=1 / me_range=24 / chroma_me=0 / trellis=2 / 8x8dct=1 / cqm=0 / deadzone=21,11 / fast_pskip=0 / chroma_qp_offset=-3 / threads=3 / lookahead_threads=1 / sliced_threads=0 / nr=0 / decimate=0 / interlaced=0 / bluray_compat=0 / constrained_intra=0 / bframes=3 / b_pyramid=2 / b_adapt=2 / b_bias=0 / direct=3 / weightb=1 / open_gop=0 / weightp=2 / keyint=240 / keyint_min=25 / scenecut=40 / intra_refresh=0 / rc_lookahead=60 / rc=2pass / mbtree=1 / bitrate=1740 / ratetol=1.0 / qcomp=0.60 / qpmin=16 / qpmax=69 / qpstep=4 / cplxblur=20.0 / qblur=0.5 / vbv_maxrate=50000 / vbv_bufsize=62500 / nal_hrd=none / ip_ratio=1.40 / aq=1:0.70Language : EnglishEncoded date : UTC 2015-05-02 17:01:31Tagged date : UTC 2015-05-02 17:02:40Color primaries : BT.709Transfer characteristics : BT.709Matrix coefficients : BT.709

Audio #1ID : 2Format : AACFormat/Info : Advanced Audio CodecFormat profile : LCCodec ID : 40Duration : 1h 25mnBit rate mode : VariableBit rate : 128 KbpsMaximum bit rate : 135 KbpsChannel(s) : 2 channelsChannel positions : Front: L RSampling rate : 48.0 KHzCompression mode : LossyStream size : 78.2 MiB (6%)Title : [MVO]Language : RussianEncoded date : UTC 2015-05-02 17:02:12Tagged date : UTC 2015-05-02 17:02:40

Audio #2ID : 3Format : AACFormat/Info : Advanced Audio CodecFormat profile : LCCodec ID : 40Duration : 1h 25mnBit rate mode : VariableBit rate : 128 KbpsMaximum bit rate : 135 KbpsChannel(s) : 2 channelsChannel positions : Front: L RSampling rate : 48.0 KHzCompression mode : LossyStream size : 78.2 MiB (6%)Title : [DVO] Glanz and KorolevaLanguage : RussianEncoded date : UTC 2015-05-02 17:02:15Tagged date : UTC 2015-05-02 17:02:40

Audio #3ID : 4Format : AACFormat/Info : Advanced Audio CodecFormat profile : LCCodec ID : 40Duration : 1h 25mnBit rate mode : VariableBit rate : 128 KbpsMaximum bit rate : 135 KbpsChannel(s) : 2 channelsChannel positions : Front: L RSampling rate : 48.0 KHzCompression mode : LossyStream size : 78.2 MiB (6%)Title : [VO] GoblinLanguage : RussianEncoded date : UTC 2015-05-02 17:02:30Tagged date : UTC 2015-05-02 17:02:40
Зловещие мертвецы 2 / Evil Dead II«The Sequel To The Ultimate Experience In Grueling Terror»

Год выпуска: 1987
Страна: США
Жанр: ужасы, фэнтези
Продолжительность: 01:24:13
Перевод №1: Профессиональный (многоголосый, закадровый) Киномания
Перевод №2: Профессиональный (двухголосый, закадровый) Петр Гланц и Инна Королёва
Перевод №3: Авторский (одноголосый, закадровый) Алексей Михалёв
Cубтитры: нет
Режиссер: Сэм Рэйми / Sam Raimi
В ролях: Брюс Кэмпбелл / Bruce Campbell, Сара Берри / Sarah Berry, Дэн Хикс / Dan Hicks, Кэсси ДеПайва / Kassie DePaiva,
Тед Рэйми / Ted Raimi, Дениз Бикслер / Denise Bixler, Ричард Домайер / Richard Domeier, Джон Пикс / John Peakes, Лу Хэнкок / Lou Hancock, Сноуи Уинтерс / Snowy Winters и другие .
Описание: Эш возвращается в дом в лесу. Его подружка одержима демонами и больше не принадлежит себе. Эш в одиночку вынужден опять сражаться со злом .
Релиз группы
Качество: BDRip / [url=...3657447]BDRemux 1080p[/url]
Формат: MP4
Видео кодек: H.264
Аудио кодек: AAC
Видео: 960x520 AR:1.85 1740 kbps, 23.976 fps
Аудио №1: [Russian] 2ch 48 kHz 128 kbps - [MVO]
Аудио №2: [Russian] 2ch 48 kHz 128 kbps - [DVO]
Аудио №3: [Russian] 2ch 48 kHz 128 kbps - [VO]
...last pass...

x264.exe: --pass 2 --bitrate 1740 --preset medium --profile high --level 4.1 --ref 8 --aq-strength 0.7 --deblock -1:-1 --merange 24 --no-chroma-me --direct auto --b-adapt 2 --trellis 2 --no-fast-pskip --no-dct-decimate --qpmin 16 --psy-rd 1.00:0.15 --vbv-maxrate 50000 --vbv-bufsize 62500 --subme 9 --me umh --rc-lookahead 60 --min-keyint 25 --keyint 240 --colorprim bt709 --transfer bt709 --colormatrix bt709 --zones=116388,121175,b=0.4 --sar 1:1 --stats "E:\Зловещие мертвецы 2 (1987. The Evil Dead II).log" --output "E:\Зловещие мертвецы 2 (1987. The Evil Dead II).mp4" "J:\Temp\0150.avs"

avs [info]: 960x520p 1:1 @ 2997/125 fps (cfr)
x264 [info]: using SAR=1/1
x264 [info]: using cpu capabilities: MMX2 SSE2Fast SSSE3 SSE4.2 LZCNT
x264 [info]: profile High, level 4.1

x264 [info]: frame I:1023 Avg QP:19.81 size: 39058
x264 [info]: frame P:35047 Avg QP:21.62 size: 17134
x264 [info]: frame B:85106 Avg QP:23.65 size: 5385
x264 [info]: consecutive B-frames: 2.6% 5.1% 19.0% 73.4%
x264 [info]: mb I I16..4: 16.3% 71.6% 12.1%
x264 [info]: mb P I16..4: 3.3% 12.8% 1.2% P16..4: 45.6% 17.2% 9.4% 0.0% 0.0% skip:10.4%
x264 [info]: mb B I16..4: 0.2% 1.6% 0.2% B16..8: 38.9% 7.0% 1.5% direct: 5.7% skip:44.9% L0:41.6% L1:50.5% BI: 7.9%
x264 [info]: 8x8 transform intra:75.3% inter:70.7%
x264 [info]: direct mvs spatial:98.1% temporal:1.9%
x264 [info]: coded y,uvDC,uvAC intra: 76.6% 69.6% 28.4% inter: 24.7% 27.3% 4.4%
x264 [info]: i16 v,h,dc,p: 61% 13% 7% 18%
x264 [info]: i8 v,h,dc,ddl,ddr,vr,hd,vl,hu: 10% 7% 4% 10% 16% 15% 15% 12% 12%
x264 [info]: i4 v,h,dc,ddl,ddr,vr,hd,vl,hu: 12% 6% 3% 9% 15% 16% 14% 12% 12%
x264 [info]: i8c dc,h,v,p: 38% 25% 20% 17%
x264 [info]: Weighted P-Frames: Y:10.7% UV:4.9%
x264 [info]: ref P L0: 46.0% 12.4% 18.8% 6.1% 5.6% 3.9% 4.0% 2.3% 0.8% 0.1%
x264 [info]: ref B L0: 80.1% 10.0% 4.2% 2.2% 1.6% 1.2% 0.7%
x264 [info]: ref B L1: 95.7% 4.3%
x264 [info]: kb/s:1739.21

x264 [total]: encoded 121176 frames, 8.88 fps, 1739.21 kb/s
GeneralComplete name : E:\Torrents\The Evil Dead.Trilogy.BDRip.x264.960x\The Evil Dead II.1987.BDRip.x264.960x.rip by Frost O.S.mp4Format : MPEG-4Format profile : Base MediaCodec ID : isomFile size : 1.25 GiBDuration : 1h 24mnOverall bit rate mode : VariableOverall bit rate : 2 131 KbpsMovie name : The Evil Dead II 1987 BDRip x264 960x rip by Frost O SPerformer : Брюс Кэмпбелл / Bruce CampbellGenre : HorrorContentType : Short FilmRecorded date : 13 марта 1987Encoded date : UTC 2015-05-03 14:22:41Tagged date : UTC 2015-05-03 14:25:55Writing application : MkvToMp4 version: 0.224 (x64)Cover : YesComment : rip by Frost O.SLongDescription : Эш возвращается в дом в лесу. Его подружка одержима демонами и больше не принадлежит себе. Эш в одиночку вынужден опять сражаться со злом .ContentRating : ru-movie|18+|400|iTunMOVI : <?xml version="1.0" encoding="UTF-8"?> / <!DOCTYPE plist PUBLIC "-//Apple//DTD PLIST 1.0//EN" "http://www.apple.com/DTDs/PropertyList-1.0.dtd"> / <plist version="1.0"> / <dict> / <key>cast</key> / <array> / <dict> / <key>name</key> / <string>Брюс Кэмпбелл / Bruce Campbell</string> / </dict> / <dict> / <key>name</key> / <string>Сара Берри / Sarah Berry</string> / </dict> / <dict> / <key>name</key> / <string>Дэн Хикс / Dan Hicks</string> / </dict> / <dict> / <key>name</key> / <string>Кэсси ДеПайва / Kassie DePaiva</string> / </dict> / <dict> / <key>name</key> / <string>Тед Рэйми / Ted Raimi</string> / </dict> / <dict> / <key>name</key> / <string>Дениз Бикслер / Denise Bixler</string> / </dict> / <dict> / <key>name</key> / <string>Ричард Домайер / Richard Domeier</string> / </dict> / <dict> / <key>name</key> / <string>Джон Пикс / John Peakes</string> / </dict> / <dict> / <key>name</key> / <string>Лу Хэнкок / Lou Hancock</string> / </dict> / <dict> / <key>name</key> / <string>Сноуи Уинтерс / Snowy Winters и другие .</string> / </dict> / </array> / <key>directors</key> / <array> / <dict> / <key>name</key> / <string>Сэм Рэйми / Sam Raimi</string> / </dict> / </array> / <key>producers</key> / <array> / <dict> / <key>name</key> / <string>Роберт Дж. Тейперт / / Robert G. Tapert</string> / </dict> / <dict> / <key>name</key> / <string>Брюс Кэмпбелл / / Bruce Campbell</string> / </dict> / <dict> / <key>name</key> / <string>Алекс Де Бенедетти / / Alex De Benedetti</string> / </dict> / <dict> / <key>name</key> / <string>Ирвин Шапиро / / Irvin Shapiro</string> / </dict> / <dict> / <key>name</key> / <string></string> / </dict> / </array> / <key>screenwriters</key> / <array> / <dict> / <key>name</key> / <string>Сэм Рэйми / / Sam Raimi</string> / </dict> / <dict> / <key>name</key> / <string>Скотт Шпигель / / Scott Spiegel</string> / </dict> / </array> / </dict> / </plist>

VideoID : 1Format : AVCFormat/Info : Advanced Video CodecFormat profile : [email protected] settings, CABAC : YesFormat settings, ReFrames : 8 framesCodec ID : avc1Codec ID/Info : Advanced Video CodingDuration : 1h 24mnBit rate : 1 740 KbpsMaximum bit rate : 8 739 KbpsWidth : 960 pixelsHeight : 520 pixelsDisplay aspect ratio : 1.85:1Frame rate mode : ConstantFrame rate : 23.976 fpsColor space : YUVChroma subsampling : 4:2:0Bit depth : 8 bitsScan type : ProgressiveBits/(Pixel*Frame) : 0.145Stream size : 1.02 GiB (82%)Writing library : x264 core 130 r2273 b3065e6Encoding settings : cabac=1 / ref=8 / deblock=1:-1:-1 / analyse=0x3:0x113 / me=umh / subme=9 / psy=1 / psy_rd=1.00:0.15 / mixed_ref=1 / me_range=24 / chroma_me=0 / trellis=2 / 8x8dct=1 / cqm=0 / deadzone=21,11 / fast_pskip=0 / chroma_qp_offset=-3 / threads=3 / lookahead_threads=1 / sliced_threads=0 / nr=0 / decimate=0 / interlaced=0 / bluray_compat=0 / constrained_intra=0 / bframes=3 / b_pyramid=2 / b_adapt=2 / b_bias=0 / direct=3 / weightb=1 / open_gop=0 / weightp=2 / keyint=240 / keyint_min=25 / scenecut=40 / intra_refresh=0 / rc_lookahead=60 / rc=2pass / mbtree=1 / bitrate=1740 / ratetol=1.0 / qcomp=0.60 / qpmin=16 / qpmax=69 / qpstep=4 / cplxblur=20.0 / qblur=0.5 / vbv_maxrate=50000 / vbv_bufsize=62500 / nal_hrd=none / ip_ratio=1.40 / aq=1:0.70 / zones=116388,121175,b=0.4Language : EnglishEncoded date : UTC 2015-05-03 14:22:41Tagged date : UTC 2015-05-03 14:23:41Color primaries : BT.709Transfer characteristics : BT.709Matrix coefficients : BT.709

Audio #1ID : 2Format : AACFormat/Info : Advanced Audio CodecFormat profile : LCCodec ID : 40Duration : 1h 24mnBit rate mode : VariableBit rate : 128 KbpsMaximum bit rate : 135 KbpsChannel(s) : 2 channelsChannel positions : Front: L RSampling rate : 48.0 KHzCompression mode : LossyStream size : 77.1 MiB (6%)Title : [MVO] KinomaniyaLanguage : RussianEncoded date : UTC 2015-05-03 14:23:17Tagged date : UTC 2015-05-03 14:23:41

Audio #2ID : 3Format : AACFormat/Info : Advanced Audio CodecFormat profile : LCCodec ID : 40Duration : 1h 24mnBit rate mode : VariableBit rate : 128 KbpsMaximum bit rate : 135 KbpsChannel(s) : 2 channelsChannel positions : Front: L RSampling rate : 48.0 KHzCompression mode : LossyStream size : 77.1 MiB (6%)Title : [DVO] Glanz and KorolevaLanguage : RussianEncoded date : UTC 2015-05-03 14:23:28Tagged date : UTC 2015-05-03 14:23:41

Audio #3ID : 4Format : AACFormat/Info : Advanced Audio CodecFormat profile : LCCodec ID : 40Duration : 1h 24mnBit rate mode : VariableBit rate : 128 KbpsMaximum bit rate : 135 KbpsChannel(s) : 2 channelsChannel positions : Front: L RSampling rate : 48.0 KHzCompression mode : LossyStream size : 77.1 MiB (6%)Title : [VO] MihalevLanguage : RussianEncoded date : UTC 2015-05-03 14:23:35Tagged date : UTC 2015-05-03 14:23:41
Зловещие мертвецы 3: Армия тьмы / Army of Darkness«He's a 20th century guy, trapped in the middle ages»

Год выпуска: 1992
Страна: США
Жанр: ужасы, фэнтези, боевик, комедия
Продолжительность: 1:20:53
Перевод №1: Профессиональный (многоголосый, закадровый)
Перевод №2: Профессиональный (двухголосый, закадровый) Петр Гланц и Инна Королёва
Перевод №3: Авторский (одноголосый, закадровый) Алексей Михалёв
Cубтитры: нет
Режиссер: Сэм Рэйми / Sam Raimi
В ролях: Брюс Кэмпбелл / Bruce Campbell, Эмбет Дэвидц / Embeth Davidtz, Маркус Гилберт / Marcus Gilbert, Йен Эберкромби / Ian Abercrombie, Ричард Гроув / Richard Grove, Тимоти Патрик Куилл / Timothy Patrick Quill, Майкл Эрл Рейд / Michael Earl Reid, Бриджит Фонда / Bridget Fonda,
Патриша Тэллман / Patricia Tallman, Тед Рэйми / Ted Raimi и другие .
Описание: По воле случая Эш переносится в далекое прошлое. Вместе со своим автомобилем и двухстволкой он оказывается в 13 веке. В этом мрачном средневековье люди страдают от сил тьмы. Бедняга Эш был пойман добропорядочными гражданами и помещен в местную тюрьму. Он с трудом смог убедить судью в том, что он вовсе не шпион из враждебного королевства. Он решает помочь людям в битве с врагами.

Чтобы победить, он должен восстановить Некрономикон, старинную магическую книгу, которая поможет ему вернуться в свое время. По неосторожности Эш выпустил на волю Армию тьмы. Как победить живых мертвецов ?
Релиз группы
Качество: BDRip / [url=...3664078]BDRemux 1080p[/url]
Формат: MP4
Видео кодек: H.264
Аудио кодек: AAC
Видео: 960x520 AR:1.85 1740 kbps, 23.976 fps
Аудио №1: [Russian] 2ch 48 kHz 128 kbps - [MVO]
Аудио №2: [Russian] 2ch 48 kHz 128 kbps - [DVO]
Аудио №3: [Russian] 2ch 48 kHz 128 kbps - [VO]
...last pass...

x264.exe: --pass 2 --bitrate 1740 --preset medium --profile high --level 4.1 --ref 8 --aq-strength 0.7 --deblock -1:-1 --merange 24 --no-chroma-me --direct auto --b-adapt 2 --trellis 2 --no-fast-pskip --no-dct-decimate --qpmin 16 --psy-rd 1.00:0.15 --vbv-maxrate 50000 --vbv-bufsize 62500 --subme 9 --me umh --rc-lookahead 60 --min-keyint 25 --keyint 240 --colorprim bt709 --transfer bt709 --colormatrix bt709 --sar 1:1 --stats "E:\Зловещие мертвецы 3. Армия тьмы (1992. Army of Darkness).log" --output "E:\Зловещие мертвецы 3. Армия тьмы (1992. Army of Darkness).mp4" "J:\Temp\0159.avs"

avs [info]: 960x520p 1:1 @ 2997/125 fps (cfr)
x264 [info]: using SAR=1/1
x264 [info]: using cpu capabilities: MMX2 SSE2Fast SSSE3 SSE4.2 LZCNT
x264 [info]: profile High, level 4.1

x264 [info]: frame I:1040 Avg QP:22.50 size: 46107
x264 [info]: frame P:36074 Avg QP:24.35 size: 15525
x264 [info]: frame B:79079 Avg QP:26.24 size: 5629
x264 [info]: consecutive B-frames: 3.3% 6.5% 34.2% 56.1%
x264 [info]: mb I I16..4: 20.4% 69.7% 9.9%
x264 [info]: mb P I16..4: 4.6% 12.8% 1.3% P16..4: 48.5% 12.5% 10.4% 0.0% 0.0% skip: 9.9%
x264 [info]: mb B I16..4: 0.2% 1.6% 0.2% B16..8: 40.6% 6.7% 1.8% direct: 5.1% skip:43.7% L0:42.3% L1:49.4% BI: 8.3%
x264 [info]: 8x8 transform intra:70.2% inter:71.1%
x264 [info]: direct mvs spatial:97.6% temporal:2.4%
x264 [info]: coded y,uvDC,uvAC intra: 73.2% 68.1% 28.6% inter: 20.1% 27.3% 4.4%
x264 [info]: i16 v,h,dc,p: 29% 19% 11% 41%
x264 [info]: i8 v,h,dc,ddl,ddr,vr,hd,vl,hu: 8% 4% 3% 12% 18% 15% 16% 12% 12%
x264 [info]: i4 v,h,dc,ddl,ddr,vr,hd,vl,hu: 10% 5% 3% 10% 17% 16% 15% 12% 13%
x264 [info]: i8c dc,h,v,p: 38% 25% 19% 18%
x264 [info]: Weighted P-Frames: Y:17.0% UV:8.3%
x264 [info]: ref P L0: 47.6% 12.6% 16.9% 6.5% 5.1% 4.1% 3.7% 2.2% 1.2% 0.1%
x264 [info]: ref B L0: 76.1% 11.2% 5.4% 2.7% 2.1% 1.6% 0.8%
x264 [info]: ref B L1: 93.8% 6.2%
x264 [info]: kb/s:1738.47

x264 [total]: encoded 116193 frames, 8.62 fps, 1738.47 kb/s
GeneralComplete name : E:\Torrents\The Evil Dead.Trilogy.BDRip.x264.960x\The Evil Dead III.1992.BDRip.x264.960x.rip by Frost O.S.mp4Format : MPEG-4Format profile : Base MediaCodec ID : isomFile size : 1.20 GiBDuration : 1h 20mnOverall bit rate mode : VariableOverall bit rate : 2 126 KbpsMovie name : The Evil Dead III.1992.BDRip.x264.960x.rip by Frost O.SPerformer : Сэм Рэйми / Sam RaimiGenre : HorrorContentType : Short FilmRecorded date : 9 октября 1992Encoded date : UTC 2015-05-04 14:55:21Tagged date : UTC 2015-05-04 15:01:33Writing application : MkvToMp4 version: 0.224 (x64)Cover : YesComment : rip by Frost O.SLongDescription : По воле случая Эш переносится в далекое прошлое. Вместе со своим автомобилем и двухстволкой он оказывается в 13 веке. В этом мрачном средневековье люди страдают от сил тьмы. Бедняга Эш был пойман добропорядочными гражданами и помещен в местную тюрьму. Он с трудом смог убедить судью в том, что он вовсе не шпион из враждебного королевства. Он решает помочь людям в битве с врагами. / Чтобы победить, он должен восстановить Некрономикон, старинную магическую книгу, которая поможет ему вернуться в свое время. По неосторожности Эш выпустил на волю Армию тьмы. Как победить живых мертвецов ?ContentRating : ru-movie|16+|375|iTunMOVI : <?xml version="1.0" encoding="UTF-8"?> / <!DOCTYPE plist PUBLIC "-//Apple//DTD PLIST 1.0//EN" "http://www.apple.com/DTDs/PropertyList-1.0.dtd"> / <plist version="1.0"> / <dict> / <key>cast</key> / <array> / <dict> / <key>name</key> / <string>Брюс Кэмпбелл / Bruce Campbell</string> / </dict> / <dict> / <key>name</key> / <string>Эмбет Дэвидц / Embeth Davidtz</string> / </dict> / <dict> / <key>name</key> / <string>Маркус Гилберт / Marcus Gilbert</string> / </dict> / <dict> / <key>name</key> / <string>Йен Эберкромби / Ian Abercrombie</string> / </dict> / <dict> / <key>name</key> / <string>Ричард Гроув / Richard Grove</string> / </dict> / <dict> / <key>name</key> / <string>Тимоти Патрик Куилл / Timothy Patrick Quill</string> / </dict> / <dict> / <key>name</key> / <string>Майкл Эрл Рейд / Michael Earl Reid</string> / </dict> / <dict> / <key>name</key> / <string>Бриджит Фонда / Bridget Fonda</string> / </dict> / <dict> / <key>name</key> / <string>Патриша Тэллман / Patricia Tallman</string> / </dict> / <dict> / <key>name</key> / <string>Тед Рэйми / Ted Raimi и другие .</string> / </dict> / </array> / <key>directors</key> / <array> / <dict> / <key>name</key> / <string>Сэм Рэйми / Sam Raimi</string> / </dict> / </array> / <key>producers</key> / <array> / <dict> / <key>name</key> / <string>Роберт Дж. Тейперт / / Robert G. Tapert</string> / </dict> / <dict> / <key>name</key> / <string>Брюс Кэмпбелл / / Bruce Campbell</string> / </dict> / <dict> / <key>name</key> / <string>Дино Де Лаурентис / / Dino De Laurentiis</string> / </dict> / </array> / <key>screenwriters</key> / <array> / <dict> / <key>name</key> / <string>Сэм Рэйми / / Sam Raimi</string> / </dict> / <dict> / <key>name</key> / <string>Айван Рэйми / / Ivan Raimi</string> / </dict> / </array> / </dict> / </plist>

VideoID : 1Format : AVCFormat/Info : Advanced Video CodecFormat profile : [email protected] settings, CABAC : YesFormat settings, ReFrames : 8 framesCodec ID : avc1Codec ID/Info : Advanced Video CodingDuration : 1h 20mnBit rate : 1 740 KbpsMaximum bit rate : 8 388 KbpsWidth : 960 pixelsHeight : 520 pixelsDisplay aspect ratio : 1.85:1Frame rate mode : ConstantFrame rate : 23.976 fpsColor space : YUVChroma subsampling : 4:2:0Bit depth : 8 bitsScan type : ProgressiveBits/(Pixel*Frame) : 0.145Stream size : 1 004 MiB (82%)Writing library : x264 core 130 r2273 b3065e6Encoding settings : cabac=1 / ref=8 / deblock=1:-1:-1 / analyse=0x3:0x113 / me=umh / subme=9 / psy=1 / psy_rd=1.00:0.15 / mixed_ref=1 / me_range=24 / chroma_me=0 / trellis=2 / 8x8dct=1 / cqm=0 / deadzone=21,11 / fast_pskip=0 / chroma_qp_offset=-3 / threads=3 / lookahead_threads=1 / sliced_threads=0 / nr=0 / decimate=0 / interlaced=0 / bluray_compat=0 / constrained_intra=0 / bframes=3 / b_pyramid=2 / b_adapt=2 / b_bias=0 / direct=3 / weightb=1 / open_gop=0 / weightp=2 / keyint=240 / keyint_min=25 / scenecut=40 / intra_refresh=0 / rc_lookahead=60 / rc=2pass / mbtree=1 / bitrate=1740 / ratetol=1.0 / qcomp=0.60 / qpmin=16 / qpmax=69 / qpstep=4 / cplxblur=20.0 / qblur=0.5 / vbv_maxrate=50000 / vbv_bufsize=62500 / nal_hrd=none / ip_ratio=1.40 / aq=1:0.70Language : EnglishEncoded date : UTC 2015-05-04 14:55:21Tagged date : UTC 2015-05-04 14:56:52Color primaries : BT.709Transfer characteristics : BT.709Matrix coefficients : BT.709

Audio #1ID : 2Format : AACFormat/Info : Advanced Audio CodecFormat profile : LCCodec ID : 40Duration : 1h 20mnBit rate mode : VariableBit rate : 128 KbpsMaximum bit rate : 135 KbpsChannel(s) : 2 channelsChannel positions : Front: L RSampling rate : 48.0 KHzCompression mode : LossyStream size : 74.1 MiB (6%)Title : [MVO]Language : RussianEncoded date : UTC 2015-05-04 14:56:24Tagged date : UTC 2015-05-04 14:56:52

Audio #2ID : 3Format : AACFormat/Info : Advanced Audio CodecFormat profile : LCCodec ID : 40Duration : 1h 20mnBit rate mode : VariableBit rate : 128 KbpsMaximum bit rate : 132 KbpsChannel(s) : 2 channelsChannel positions : Front: L RSampling rate : 48.0 KHzCompression mode : LossyStream size : 73.9 MiB (6%)Title : [DVO] Glanz and KorolevaLanguage : RussianEncoded date : UTC 2015-05-04 14:56:47Tagged date : UTC 2015-05-04 14:56:52

Audio #3ID : 4Format : AACFormat/Info : Advanced Audio CodecFormat profile : LCCodec ID : 40Duration : 1h 20mnBit rate mode : VariableBit rate : 128 KbpsMaximum bit rate : 134 KbpsChannel(s) : 2 channelsChannel positions : Front: L RSampling rate : 48.0 KHzCompression mode : LossyStream size : 73.9 MiB (6%)Title : [VO] MihalevLanguage : RussianEncoded date : UTC 2015-05-04 14:56:49Tagged date : UTC 2015-05-04 14:56:52
Хочу выразить отдельную благодарность пользователю и Snake1965 за помощь в оформлении раздачи

Трекер:  [ 04-Май-2015 19:30 ]

  

Скачать .torrent

Размер .torrent файла 19 KB


Размер: 3.73 GB
Хэш (hash) релиза: 00da4ea848d4a5501b3f9a0889fe1ba1ca587656

Еще никто не оставлял запись к записи скачать торрент [VIDEO] Зловещие мертвецы: Трилогия The Evil Dead: Trilogy . Будь первым!

!Обратная связь