Hase und Wolf | Lee Greenwood | BDRipVF Mythica: A Quest for Heroes

Скачать через торрент [VIDEO] Дрожь земли 1-4 части + Сериал 1-13 серии из 13 Tremors бесплатно русская версия torrent активатор

Статистика раздачи
Размер:  3.08 GB   |    Зарегистрирован:  3 года 2 месяца   |    .torrent скачан:  76 раз   |   
Раздают:  1  
   
загрузка...
 
Автор Сообщение

Galfimbul

avatar Galfimbul


Дрожь земли / Tremors

Год выпуска: 1990

Страна: США

Жанр: комедия, приключения, ужасы

Продолжительность: 01:35:37

Перевод: Профессиональный (многоголосый закадровый)

Cубтитры: нет

Режиссер: Рон Андервуд / Ron Underwood

В ролях: Кевин Бэйкон, Фред Уорд, Финн Картер, Майкл Гросс, Риба МакИнтайр, Роберт Джейн, Шарлотта Стюарт, Тони Дженаро, Ариана Ричардс, Ричард Маркус

Описание: Сезонные разнорабочие Вэл Макки и Эрл Бассетт решают покинуть крошечный город Перфекшн, что в штате Невада, но зловещие подземные толчки мешают их отъезду.
С помощью студентки - сейсмолога они выясняют, что городок наводнен гигантскими плотоядными червями, обитающими под землей. Теперь кучке храбрецов предстоит вступить в битву с исполинскими тварями, которые решили полакомиться людьми.

Качество: DVDRip

Формат: AVI

Видео: Video: 320x176 (16:9), 23.976 fps, XviD build 50 ~320 kbps avg, 0.26 bit/pixel

Аудио: 48 kHz, MPEG Layer 3, 2 ch, ~128.00 kbps avg
GeneralComplete name : G:\Tremors\Дрожь земли - Tremors\Drozh.Zemli.1990.RUS.HDRip.XviD.AC3.-HQ-ViDEO.aviFormat : AVIFormat/Info : Audio Video InterleaveFile size : 315 MiBDuration : 1h 35mnOverall bit rate : 460 KbpsWriting application : Lavf52.57.1

VideoID : 0Format : xvidCodec ID : xvidDuration : 1h 35mnBit rate : 320 KbpsWidth : 320 pixelsHeight : 176 pixelsDisplay aspect ratio : 16:9Frame rate : 23.976 fpsBits/(Pixel*Frame) : 0.237Stream size : 219 MiB (70%)

AudioID : 1Format : MPEG AudioFormat version : Version 1Format profile : Layer 3Mode : Joint stereoMode extension : MS StereoCodec ID : 55Codec ID/Hint : MP3Duration : 1h 35mnBit rate mode : ConstantBit rate : 128 KbpsChannel(s) : 2 channelsSampling rate : 44.1 KHzCompression mode : LossyStream size : 87.6 MiB (28%)Alignment : Aligned on interleavesInterleave, duration : 26 ms (0.63 video frame)Writing library : LAME3.98.2
Дрожь земли 2: Повторный удар / Tremors II: Aftershocks

Год выпуска: 1996

Выпущено: США

Жанр: ужасы, фантастика, боевик, триллер, комедия

Продолжительность: 01:39:28

Перевод: Профессиональный (двухголосый, закадровый) СТС

Субтитры: нет

Режиссер: С.С. Уилсон / S.S. Wilson

В ролях: Фред Уорд, Кристофер Гартин, Хелен Шейвер, Майкл Гросс, Марсело Тьюберт, Марко Эрнандез, Хосе Рамон Росарио, Томас Розалес мл., С.С. Уилсон

О фильме: Гигантские черви «грабоиды» возвращаются, чтобы превратить Землю в большой шведский стол. Пока что древние хищники из прекембрийского периода довольствуются случайными странниками и рабочими, оказавшимися в мексиканской пустыне.
Но аппетиты тварей растут с каждым днем. Бизнесмен Карлос Ортега решает положить конец беспределу гигантских червей и отправляется в штат Невада на поиски Эрла Бассета, того самого смельчака, которому удалось убить нескольких червей…

Качество: DVDRip

Формат: AVI

Видео: Video: 320x176 (16:9), 23.976 fps, XviD build 50 ~320 kbps avg, 0.26 bit/pixel

Аудио: 48 kHz, MPEG Layer 3, 2 ch, ~128.00 kbps avg

Дрожь земли 3 / Tremors 3: Back to Perfection

Год выпуска: 2001

Выпущено: США

Жанр: ужасы, фантастика, боевик, триллер, комедия

Продолжительность: 01:43:36

Перевод: Профессиональный (многоголосый, закадровый) СТС

Субтитры: нет

Режиссер: Брент Мэддок / Brent Maddock

В ролях: Майкл Гросс, Шон Кристиан, Сьюзэн Чуэнг, Шарлотта Стюарт, Ариана Ричардс, Тони Дженаро, Бэрри Ливингстон, Джон Паппас, Роберт Джейн, Билли Рик

О фильме: Они спали целых двести лет. Но теперь они проснулись, и им очень хочется есть. И, надо заметить, голод у них за два века развился нешуточный! Подземные твари вылезают на поверхность и отправляются в путешествие по просторам Невады в поисках своего завтрака.
На пути прожорливых монстров оказывается знакомый нам городок под скромным названием «Совершенство». Но здесь уже готовы к «приему» ползучих людоедов! Признанный специалист по выживанию и профессиональный истребитель страшных хищников, Берт Гаммер, успел обзавестись огромным арсеналом всевозможного стрелкового оружия, различной взрывчатки и готов к бою на все сто.
Правда он еще не знает, что подземные черви тоже подготовились к встрече с городом: они научились превращаться в чрезвычайно опасных летающих особей…

Качество: DVDRip

Формат: AVI

Видео: Video: 320x176 (16:9), 23.976 fps, XviD build 50 ~320 kbps avg, 0.26 bit/pixel

Аудио: 48 kHz, MPEG Layer 3, 2 ch, ~128.00 kbps avg

Дрожь земли 4: Легенда начинается / Tremors 4: The Legend Begins

Год выпуска: 2004

Выпущено: США

Жанр: ужасы, фантастика, боевик, триллер, комедия, вестерн

Продолжительность: 01:40:59

Перевод: Профессиональный (многоголосый, закадровый) СТС

Субтитры: нет

Режиссер: С.С. Уилсон / S.S. Wilson

В ролях: Майкл Гросс, Сара Ботсфорд, Билли Драго, Брент Роам, Аугуст Шелленберг, Дж.Э. Фримен, Ло Минг, Лидия Лук, Сэм Ли, Нил Копит

О фильме: После того как жителей отдаленного городка в штате Невада стал безжалостно истреблять невидимый враг, владелец копей Хайрем Гаммер нанимает лучшего стрелка на Диком Западе по кличке Келли Черная Рука, чтобы тот расправился со зловещими существами, оставляющими уважаемого бизнесмена без прибыли!
Надо заметить, что мистер Гаммер является прапрадедом Берта Гаммера — отважного охотника и эксперта по истреблению прожорливых подземных хищников. Так что, как Вы, наверное, уже догадались, кровопролитных схваток с огромными плотоядными червями теперь не избежать!

Трекер:  [ 02-Май-2015 16:30 ]

  

Скачать .torrent

Размер .torrent файла 18 KB


Размер: 3.08 GB
Хэш (hash) релиза: d28d2e2eeeb94c23f443a1dfe00449924fbc1f34

Еще никто не оставлял запись к записи скачать торрент [VIDEO] Дрожь земли 1-4 части + Сериал 1-13 серии из 13 Tremors . Будь первым!

!Обратная связь