Scarica APK | Top IMDb | IObit Uninstaller Pro 7.5.0.7 + clé multi

Скачать через торрент [VIDEO] Человек ноября The November Man бесплатно русская версия torrent активатор

Статистика раздачи
Размер:  652 MB   |    Зарегистрирован:  3 года 2 месяца   |    .torrent скачан:  71 раз   |   
Раздают:  1  
   
загрузка...
 
Автор Сообщение

Galfimbul

avatar Galfimbul


Человек ноября / The November Man / The November Man
Год выпуска: 2014

Страна:
Жанр: боевик, триллер, криминал
Продолжительность: 01:48:21
Перевод: Профессиональный (дублированный)
Cубтитры: нет
Режиссер: Роджер Дональдсон / Roger Donaldson
В ролях: Пирс Броснан, Люк Брейси, Ольга Куриленко, Билл Смитрович, Амила Терзимехик, Лазар Ристовски, Медиха Муслиович, Элайза Тейлор, Катерина Скорсоне, Аки Котабе Экс-агент ЦРУ, невольно вернувшись в дело, оказывается в эпицентре международной интриги, затеянной главами разведывательного управления. В их планах - внедрение во внутреннюю политику стран Восточной Европы через кандидата в президенты РФ с помощью шантажа грязным прошлым . На его совести - вторая вспышка войны на Северном Кавказе, жертвы, насилие. Но Питер Дэверо разгадывает тайны нечестной игры …Кинопоиск | IMDB
[b]Качество: HDRip
Исходник: The.November.Man.2014.720p.BluRay HDclub
Формат: MP4
Видео: AVC, 640x264 (2,40:1), 709 kbps, 23,976fps
Аудио: Русский [Дубляж], AAC, 48kHz, (2 ch), 128,0 kbps[/b]
ОбщееПолное имя : The November Man 2014.mp4Формат : MPEG-4Профиль формата : Base MediaИдентификатор кодека : isomРазмер файла : 652 МбайтПродолжительность : 1 ч. 48 м.Режим общего битрейта : ПеременныйОбщий поток : 841 Кбит/секДата кодирования : UTC 2015-04-27 04:29:47Дата пометки : UTC 2015-04-27 04:29:47

ВидеоИдентификатор : 1Формат : AVCФормат/Информация : Advanced Video CodecПрофиль формата : [email protected]Параметр CABAC формата : ДаПараметр ReFrames формата : 10 кадровИдентификатор кодека : avc1Идентификатор кодека/Информация : Advanced Video CodingПродолжительность : 1 ч. 48 м.Битрейт : 709 Кбит/секМаксимальный битрейт : 4439 Кбит/секШирина : 640 пикселейВысота : 264 пикселяСоотношение сторон : 2,40:1Режим частоты кадров : ПостоянныйЧастота кадров : 23,976 кадра/секЦветовое пространство : YUVСубдискретизация насыщенности : 4:2:0Битовая глубина : 8 битТип развёртки : ПрогрессивнаяБит/(Пиксели*Кадры) : 0.175Размер потока : 549 Мбайт (84%)Библиотека кодирования : x264 core 125 r2208 d9d2288Дата кодирования : UTC 2015-04-27 04:29:47Дата пометки : UTC 2015-04-27 04:30:32

АудиоИдентификатор : 2Формат : AACФормат/Информация : Advanced Audio CodecПрофиль формата : LCИдентификатор кодека : 40Продолжительность : 1 ч. 48 м.Вид битрейта : ПеременныйБитрейт : 128 Кбит/секМаксимальный битрейт : 242 Кбит/секКаналы : 2 каналаРасположение каналов : Front: L RЧастота : 48,0 КГцМетод сжатия : С потерямиРазмер потока : 99,2 Мбайт (15%)Дата кодирования : UTC 2015-04-27 04:30:26Дата пометки : UTC 2015-04-27 04:30:32


Трекер:  [ 28-Апр-2015 16:30 ]

  

Скачать .torrent

Размер .torrent файла 13 KB


Размер: 652 MB
Хэш (hash) релиза: df552bfaa4807b528b3e31dd9c1e1e494f696c54

Еще никто не оставлял запись к записи скачать торрент [VIDEO] Человек ноября The November Man . Будь первым!

!Обратная связь