Porsche the dream. Volume 1 | ready player one | Quand le dollar nous tue

Скачать через торрент [VIDEO] Игрок The Gambler бесплатно русская версия torrent активатор

Статистика раздачи
Размер:  815 MB   |    Зарегистрирован:  3 года 2 месяца   |    .torrent скачан:  46 раз   |   
Раздают:  1  
   
загрузка...
 
Автор Сообщение

Galfimbul

avatar Galfimbul


Игрок / The Gambler
Год выпуска: 2014

Страна:
Жанр: триллер, драма, криминал
Продолжительность: 01:50:58
Перевод:Профессиональный (дублированный)
Cубтитры: нет
Режиссер: Руперт Уайатт / Rupert Wyatt
В ролях: Марк Уолберг, Джон Гудман, Бри Ларсон, Майкл Кеннет Уильямс, Джессика Лэнг, Гриффин Кливлэнд, Омар Лейва, Энтони Келли, Стив Парк, Эмори Коэн Джим Беннетт – рисковый парень. Днем он – гениальный писатель и отличный преподаватель, ночью – заядлый игрок. Он глубоко увяз в мире, где закон – пустой звук, и однажды ставит на кон все, включая собственную жизнь. Те, кому он должен, опасны, а помочь ему может только тот, кто еще опаснее.

Достоин ли второго шанса человек, проигравший самого себя? А, если да, то – во сколько это ему обойдется?Кинопоиск | IMDB
[b]Качество: HDRip
Исходник: The.Gambler.2014.720p.BluRay HDclub
Формат: MP4
Видео: AVC, 640x264 (2,40:1), 896 kbps, 23,976fps
Аудио: Русский [Дубляж], AAC, 48kHz, (2 ch), 128,0 kbps[/b]
бщееПолное имя : The Gambler 2014.mp4Формат : MPEG-4Профиль формата : Base MediaИдентификатор кодека : isomРазмер файла : 815 МбайтПродолжительность : 1 ч. 50 м.Режим общего битрейта : ПеременныйОбщий поток : 1026 Кбит/секДата кодирования : UTC 2015-04-24 20:57:21Дата пометки : UTC 2015-04-24 20:57:21

ВидеоИдентификатор : 1Формат : AVCФормат/Информация : Advanced Video CodecПрофиль формата : [email protected]Параметр CABAC формата : ДаПараметр ReFrames формата : 10 кадровИдентификатор кодека : avc1Идентификатор кодека/Информация : Advanced Video CodingПродолжительность : 1 ч. 50 м.Битрейт : 896 Кбит/секМаксимальный битрейт : 6428 Кбит/секШирина : 640 пикселейВысота : 264 пикселяСоотношение сторон : 2,40:1Режим частоты кадров : ПостоянныйЧастота кадров : 23,976 кадра/секЦветовое пространство : YUVСубдискретизация насыщенности : 4:2:0Битовая глубина : 8 битТип развёртки : ПрогрессивнаяБит/(Пиксели*Кадры) : 0.221Размер потока : 710 Мбайт (87%)Библиотека кодирования : x264 core 125 r2208 d9d2288Дата кодирования : UTC 2015-04-24 20:57:21Дата пометки : UTC 2015-04-24 20:58:10

АудиоИдентификатор : 2Формат : AACФормат/Информация : Advanced Audio CodecПрофиль формата : LCИдентификатор кодека : 40Продолжительность : 1 ч. 50 м.Вид битрейта : ПеременныйБитрейт : 128 Кбит/секМаксимальный битрейт : 217 Кбит/секКаналы : 2 каналаРасположение каналов : Front: L RЧастота : 48,0 КГцМетод сжатия : С потерямиРазмер потока : 101 Мбайт (12%)Дата кодирования : UTC 2015-04-24 20:58:01Дата пометки : UTC 2015-04-24 20:58:10


Трекер:  [ 26-Апр-2015 23:30 ]

  

Скачать .torrent

Размер .torrent файла 16 KB


Размер: 815 MB
Хэш (hash) релиза: 8f26a350de67729009eb260e0922d33f4f489323

Еще никто не оставлял запись к записи скачать торрент [VIDEO] Игрок The Gambler . Будь первым!

!Обратная связь