Biography | Hanung Bramantyo Bicara Tentang 'The Gift' #MovieTalks | Stella Blomkvist HDTV 720p AC3 5.1

Скачать через торрент [VIDEO] Восхождение Юпитер Jupiter Ascending бесплатно русская версия torrent активатор

Статистика раздачи
Размер:  820 MB   |    Зарегистрирован:  3 года 2 месяца   |    .torrent скачан:  63 раза   |   
Раздают:  1  
   
загрузка...
 
Автор Сообщение

Galfimbul

avatar Galfimbul


Восхождение Юпитер / Jupiter Ascending
Год выпуска: 2015
Страна: США, Великобритания
Жанр: Фантастика, боевик, приключения
Продолжительность: 02:07:32
Перевод: Профессиональный (полное дублирование) iTunes
Оригинальная дорожка: Нет
Cубтитры: Нет
Режиссер: Энди Вачовски, Лана Вачовски
В ролях: Ченнинг Татум, Мила Кунис, Шон Бин, Эдди Редмэйн, Дуглас Бут, Таппенс Мидлтон, Никки Амука-Бёрд, Кристина Коул, Николас А. Ньюман

Описание: Юпитер Джонс родилась под ночным небом, и все знаки предсказывали, что девочке предстоят великие свершения. Юпитер выросла и каждый день видит во сне звезды, но просыпается в жесткой реальности, где она работает уборщицей и моет туалеты. Личная жизнь Юпитер тоже оставляет желать лучшего, пока девушка не встречает Кейна. Кейн, бывший военный охотник, прибывает на Землю, чтобы отыскать Юпитер и раскрыть девушке ее истинное предназначение. Благодаря своим генетическим особенностям Юпитер становится претенденткой невероятного наследия, способного изменить равновесие во Вселенной.

Качество: WEB-DLRip (Рип с WEB-DL 1080p)
Формат: MP4
Видео: AVC, 640x272 (2.35:1), 786 kbps, 23.976 fps
Аудио 1: Русский, AAC, 2 ch, 48 kHz, 128 kbps [Dub iTunes]
x264 [info]: frame I:1976 Avg QP:12.51 size: 33460
x264 [info]: frame P:46076 Avg QP:17.28 size: 8239
x264 [info]: frame B:135414 Avg QP:20.12 size: 2123

x264 [total]: encoded 183466 frames, 22.61 fps, 766.56 kb/s
General
Complete name : X:\Всё для мобильных телефонов и КПК\Видео\Upitep.2015.WEB-DLRip.mp4
Format : MPEG-4
Format profile : Base Media
Codec ID : isom
File size : 820 MiB
Duration : 2h 7mn
Overall bit rate mode : Variable
Overall bit rate : 898 Kbps
Encoded date : UTC 2015-04-26 08:23:44
Tagged date : UTC 2015-04-26 08:23:44

Video
ID : 1
Format : AVC
Format/Info : Advanced Video Codec
Format profile : [email protected]
Format settings, CABAC : Yes
Format settings, ReFrames : 16 frames
Codec ID : avc1
Codec ID/Info : Advanced Video Coding
Duration : 2h 7mn
Bit rate : 786 Kbps
Maximum bit rate : 9 312 Kbps
Width : 640 pixels
Height : 272 pixels
Display aspect ratio : 2.35:1
Frame rate mode : Constant
Frame rate : 23.976 fps
Color space : YUV
Chroma subsampling : 4:2:0
Bit depth : 8 bits
Scan type : Progressive
Bits/(Pixel*Frame) : 0.188
Stream size : 699 MiB (85%)
Title : [email protected]-DEV-rev248-g39d5978-master
Writing library : x264 core 146 r2538 121396c
Encoding settings : cabac=1 / ref=16 / deblock=1:0:0 / analyse=0x1:0x131 / me=umh / subme=10 / psy=1 / psy_rd=1.00:0.00 / mixed_ref=1 / me_range=24 / chroma_me=1 / trellis=2 / 8x8dct=0 / cqm=0 / deadzone=21,11 / fast_pskip=1 / chroma_qp_offset=-2 / threads=6 / lookahead_threads=1 / sliced_threads=0 / nr=0 / decimate=1 / interlaced=0 / bluray_compat=0 / constrained_intra=0 / bframes=8 / b_pyramid=2 / b_adapt=2 / b_bias=0 / direct=3 / weightb=1 / open_gop=0 / weightp=2 / keyint=250 / keyint_min=23 / scenecut=40 / intra_refresh=0 / rc_lookahead=60 / rc=abr / mbtree=1 / bitrate=786 / ratetol=1.0 / qcomp=0.60 / qpmin=0 / qpmax=69 / qpstep=4 / ip_ratio=1.40 / aq=1:1.00
Encoded date : UTC 2015-04-26 08:23:44
Tagged date : UTC 2015-04-26 08:24:28

Audio
ID : 2
Format : AAC
Format/Info : Advanced Audio Codec
Format profile : LC
Codec ID : 40
Duration : 2h 7mn
Bit rate mode : Variable
Bit rate : 128 Kbps
Maximum bit rate : 183 Kbps
Channel(s) : 2 channels
Channel positions : Front: L R
Sampling rate : 48.0 KHz
Compression mode : Lossy
Stream size : 117 MiB (14%)
Encoded date : UTC 2015-04-26 06:04:56
Tagged date : UTC 2015-04-26 08:24:28


Трекер:  [ 26-Апр-2015 20:30 ]

  

Скачать .torrent

Размер .torrent файла 16 KB


Размер: 820 MB
Хэш (hash) релиза: 7921b334b8df587cb40e7879505d20bb55f646b6

Еще никто не оставлял запись к записи скачать торрент [VIDEO] Восхождение Юпитер Jupiter Ascending . Будь первым!

!Обратная связь