Comparative
Robots.Attack.On.Vapeland.x64-DARKSiDERS

Скачать через торрент [VIDEO] Голодные игры: Сойка-пересмешница. Часть I The Hunger Games: Mockingjay - Part 1 бесплатно русская версия torrent активатор

Статистика раздачи
Размер:  1.14 GB   |    Зарегистрирован:  2 года 11 месяцев   |    .torrent скачан:  102 раза   |   
Раздают:  1  
   
загрузка...
 
Автор Сообщение

Galfimbul

avatar Galfimbul


Голодные игры: Сойка-пересмешница. Часть I
The Hunger Games: Mockingjay - Part 1

Год выпуска: 2014
Страна: США (Color Force, Lionsgate)
Жанр: Фантастика, приключения
Продолжительность: 01:46:44
Перевод 1: Профессиональный (полное дублирование)
Перевод 2: Одноголосый (закадровый) [А. Матвеев]
Оригинальная дорожка: Английский
Cубтитры: Русские отключаемые, полные
Режиссер: Френсис Лоуренс/ Francis Lawrence
В ролях: Дженнифер Лоуренс, Лиам Хемсворт, Джош Хатчерсон, Джулианна Мур, Филип Сеймур Хоффман, Дональд Сазерленд, Вуди Харрельсон, Элизабет Бэнкс, Натали Дормер, Сэм Клафлин, Уиллоу Шилдс, Махершала Али, Джена Мэлоун, Джеффри Райт, Паула Малкомсон, Стэнли Туччи, Ивэн Росс, Элден Хенсон, Уэс Чэтэм, Сарита Чоудри
Описание: 75-ые Голодные игры изменили все. Китнисс нарушила правила, и непоколебимое до той поры деспотичное правление Капитолия пошатнулось. У людей появилась надежда, и ее символ — Сойка-пересмешница. Теперь, чтобы освободить захваченного в плен Пита и защитить своих близких, Китнисс придется сражаться в настоящих битвах и стать еще сильнее, чем на арене игр.

Качество: HDRip (Рип с BDRip 1080p)
Формат: MP4
Видео: AVC, 960x400 (2.40:1), 932 kbps, 23.976 fps
Аудио 1: Русский, AAC, 2 ch, 48 kHz, 128 kbps [Dub]
Аудио 2: Русский, AAC, 2 ch, 48 kHz, 128 kbps [VO, А. Матвеев]
Аудио 3: Английский, AAC, 2 ch, 48 kHz, 128 kbps [Original]
Золотой глобус, 2015 год
Номинации (1):
Лучшая песня — «For Yellow Flicker Beat»
Хотя персонаж Эффи Тринкет (Элизабет Бэнкс) появляется лишь эпизодически в конце романа, в фильме эта роль была расширена.
Во время съемок сцены в канализационных трубах у Дженнифер Лоуренс был приступ удушья из-за сухого льда, используемого в качестве дыма в этой сцене.
Помимо парика Джулианна Мур также носила темные контактные линзы для своей роли.
Чтобы избежать утечки информации и сохранить проект в тайне, во время съемок фильм носил рабочее название Seashore ("Морской берег»).
Филип Сеймур Хоффман, сыгравший Плутарха Хэвенсби, трагически погиб за неделю до окончания съемок. В связи с тем, что большинство его сцен для двух заключительных фильмов было уже отснято, на эту роль не стали брать другого актера, а работу над ней закончили при помощи внесения некоторых изменений в сценарий.
Джулианна Мур рассказала, что согласиться на роль Альмы Койн ее убедили собственные дети, которым очень нравится оригинальный роман.
Джоди Фостер рассматривалась на роль Альмы Койн.
Первый фильм серии, который был снят на «цифру».
Натали Дормер на самом деле побрила половину головы для роли Крессиды. Изначально она собиралась побрить всю голову, но режиссер Френсис Лоуренс убедил ее не делать этого.
Это первый фильм серии, не выпущенный в IMAX.
Лиам Хемсворт заработал во время съемок травму голеностопного сустава.
У Дженнифер Лоуренс были недостаточно длинные волосы, из-за этого ей пришлось носить парик.
x264 [info]: frame I:1281 Avg QP:13.43 size: 51129
x264 [info]: frame P:33683 Avg QP:16.85 size: 12597
x264 [info]: frame B:141748 Avg QP:19.84 size: 2603

x264 [total]: encoded 176712 frames, 9.56 fps, 932.17 kb/s
General
Complete name : [VIDEO] The.Hunger.Games.Mockingjay.Part.1.2014.HDRip.x264.960x(semen_52-TNC).mp4
Format : MPEG-4
Format profile : Base Media
Codec ID : isom
File size : 1.14 GiB
Duration : 2h 2mn
Overall bit rate mode : Variable
Overall bit rate : 1 331 Kbps
Movie name : [VIDEO] The Hunger Games Mockingjay Part 1 2014 HDRip x264 960x(semen_52-TNC)
ContentType : Short Film
Encoded date : UTC 2015-04-24 13:32:47
Tagged date : UTC 2015-04-24 13:34:26
Writing application : MkvToMp4 version: 0.224 (x64)
Comment : Rip by semen_52-TNC

Video
ID : 1
Format : AVC
Format/Info : Advanced Video Codec
Format profile : [email protected]
Format settings, CABAC : Yes
Format settings, ReFrames : 8 frames
Codec ID : avc1
Codec ID/Info : Advanced Video Coding
Duration : 2h 2mn
Bit rate : 932 Kbps
Maximum bit rate : 13.2 Mbps
Width : 960 pixels
Height : 400 pixels
Display aspect ratio : 2.40:1
Frame rate mode : Constant
Frame rate : 23.976 fps
Color space : YUV
Chroma subsampling : 4:2:0
Bit depth : 8 bits
Scan type : Progressive
Bits/(Pixel*Frame) : 0.101
Stream size : 819 MiB (70%)
Writing library : x264 core 130 r2273 b3065e6
Encoding settings : cabac=1 / ref=8 / deblock=1:-2:-1 / analyse=0x3:0x133 / me=esa / subme=9 / psy=1 / psy_rd=0.90:0.15 / mixed_ref=1 / me_range=32 / chroma_me=1 / trellis=2 / 8x8dct=1 / cqm=0 / deadzone=21,11 / fast_pskip=0 / chroma_qp_offset=-3 / threads=12 / lookahead_threads=2 / sliced_threads=0 / nr=0 / decimate=1 / interlaced=0 / bluray_compat=0 / constrained_intra=0 / bframes=10 / b_pyramid=2 / b_adapt=2 / b_bias=0 / direct=1 / weightb=1 / open_gop=0 / weightp=2 / keyint=250 / keyint_min=25 / scenecut=40 / intra_refresh=0 / rc_lookahead=60 / rc=crf / mbtree=1 / crf=18.0 / qcomp=0.60 / qpmin=0 / qpmax=69 / qpstep=4 / ip_ratio=1.40 / aq=1:1.00
Language : English
Encoded date : UTC 2015-04-24 13:32:47
Tagged date : UTC 2015-04-24 13:33:21

Audio #1
ID : 2
Format : AAC
Format/Info : Advanced Audio Codec
Format profile : LC
Codec ID : 40
Duration : 2h 2mn
Bit rate mode : Variable
Bit rate : 128 Kbps
Maximum bit rate : 135 Kbps
Channel(s) : 2 channels
Channel positions : Front: L R
Sampling rate : 48.0 KHz
Compression mode : Lossy
Stream size : 112 MiB (10%)
Title : Dub / Dub
Language : Russian
Encoded date : UTC 2015-04-24 13:33:02
Tagged date : UTC 2015-04-24 13:33:21

Audio #2
ID : 3
Format : AAC
Format/Info : Advanced Audio Codec
Format profile : LC
Codec ID : 40
Duration : 2h 2mn
Bit rate mode : Variable
Bit rate : 128 Kbps
Maximum bit rate : 135 Kbps
Channel(s) : 2 channels
Channel positions : Front: L R
Sampling rate : 48.0 KHz
Compression mode : Lossy
Stream size : 112 MiB (10%)
Title : VO Matveev / VO Matveev
Language : Russian
Encoded date : UTC 2015-04-24 13:33:08
Tagged date : UTC 2015-04-24 13:33:21

Audio #3
ID : 4
Format : AAC
Format/Info : Advanced Audio Codec
Format profile : LC
Codec ID : 40
Duration : 2h 2mn
Bit rate mode : Variable
Bit rate : 128 Kbps
Maximum bit rate : 134 Kbps
Channel(s) : 2 channels
Channel positions : Front: L R
Sampling rate : 48.0 KHz
Compression mode : Lossy
Stream size : 112 MiB (10%)
Title : Original / Original
Language : English
Encoded date : UTC 2015-04-24 13:33:14
Tagged date : UTC 2015-04-24 13:33:21

Text #1
ID : 5
Format : Timed Text
Muxing mode : sbtl
Codec ID : tx3g
Duration : 1h 13mn
Bit rate mode : Variable
Bit rate : 4 bps
Stream size : 2.26 KiB (0%)
Title : Forced / Forced
Language : Russian
Encoded date : UTC 2015-04-24 13:33:21
Tagged date : UTC 2015-04-24 13:33:21

Text #2
ID : 6
Format : Timed Text
Muxing mode : sbtl
Codec ID : tx3g
Duration : 1h 50mn
Bit rate mode : Variable
Bit rate : 100 bps
Stream size : 80.6 KiB (0%)
Title : Full / Full
Language : Russian
Encoded date : UTC 2015-04-24 13:33:21
Tagged date : UTC 2015-04-24 13:33:21


Трекер:  [ 25-Апр-2015 23:00 ]

  

Скачать .torrent

Размер .torrent файла 12 KB


Размер: 1.14 GB
Хэш (hash) релиза: a6e7d1428c10e678cc01f836da42cd285d095857

Еще никто не оставлял запись к записи скачать торрент [VIDEO] Голодные игры: Сойка-пересмешница. Часть I The Hunger Games: Mockingjay - Part 1 . Будь первым!

!Обратная связь