Download
BBC Radio 1 Live Lounge 2015 Coasts.

Скачать через торрент [VIDEO] Заложница 3 бесплатно русская версия torrent активатор

Статистика раздачи
Размер:  545 MB   |    Зарегистрирован:  2 года 11 месяцев   |    .torrent скачан:  78 раз   |   
Раздают:  1  
   
загрузка...
 
Автор Сообщение

Galfimbul

avatar Galfimbul


Заложница 3 [Театральная версия] / Taken 3 [Theatrical Cut]
Год выпуска: 2014
Страна: Франция
Жанр: боевик, триллер
Продолжительность: 01:48:57
Перевод: Профессиональный (дублированный)
Оригинальная дорожка: Нет
Cубтитры: Нет
Режиссер: Оливье Мегатон
В ролях: Лиам Нисон, Форест Уитакер, Фамке Янссен, Мэгги Грэйс, Дюгрей Скотт, Сэм Спруэлл, Дон Харви, Дилан Бруно, Лиленд Орсер, Дэвид Уоршофски

Описание: Жизнь бывшего правительственного агента Брайана Миллса рушится, когда его обвиняют в убийстве, которого он не совершал. Преследуемый опытным инспектором полиции, Миллс пытается отследить настоящего убийцу…

Качество: BDRip
Формат: MP4
Видео: AVC, 640x272 (2.35:1), 567 kbps, 23.976 fps
Аудио 1: Русский, AAC, 2 ch, 48 kHz, 128 kbps [BD EUR]
General
Complete name : X:\Всё для мобильных телефонов и КПК\Видео\Taken.3.Theatrical.2014.BDRip.mp4
Format : MPEG-4
Format profile : Base Media
Codec ID : isom
File size : 545 MiB
Duration : 1h 48mn
Overall bit rate mode : Variable
Overall bit rate : 699 Kbps
Encoded date : UTC 2015-04-25 18:32:44
Tagged date : UTC 2015-04-25 18:32:44

Video
ID : 1
Format : AVC
Format/Info : Advanced Video Codec
Format profile : [email protected]
Format settings, CABAC : Yes
Format settings, ReFrames : 8 frames
Codec ID : avc1
Codec ID/Info : Advanced Video Coding
Duration : 1h 48mn
Bit rate : 567 Kbps
Maximum bit rate : 3 358 Kbps
Width : 640 pixels
Height : 272 pixels
Display aspect ratio : 2.35:1
Frame rate mode : Constant
Frame rate : 23.976 fps
Color space : YUV
Chroma subsampling : 4:2:0
Bit depth : 8 bits
Scan type : Progressive
Bits/(Pixel*Frame) : 0.136
Stream size : 442 MiB (81%)
Writing library : x264 core 130 r2273 b3065e6
Encoding settings : cabac=1 / ref=8 / deblock=1:-1:-1 / analyse=0x3:0x133 / me=umh / subme=7 / psy=1 / psy_rd=1.00:0.10 / mixed_ref=1 / me_range=16 / chroma_me=1 / trellis=2 / 8x8dct=1 / cqm=0 / deadzone=21,11 / fast_pskip=0 / chroma_qp_offset=-3 / threads=6 / lookahead_threads=1 / sliced_threads=0 / nr=0 / decimate=1 / interlaced=0 / bluray_compat=0 / constrained_intra=0 / bframes=3 / b_pyramid=2 / b_adapt=2 / b_bias=0 / direct=3 / weightb=1 / open_gop=0 / weightp=2 / keyint=250 / keyint_min=23 / scenecut=40 / intra_refresh=0 / rc_lookahead=50 / rc=crf / mbtree=1 / crf=21.0 / qcomp=0.60 / qpmin=0 / qpmax=69 / qpstep=4 / ip_ratio=1.40 / aq=1:1.00
Encoded date : UTC 2015-04-25 18:32:44
Tagged date : UTC 2015-04-25 18:32:58

Audio
ID : 2
Format : AAC
Format/Info : Advanced Audio Codec
Format profile : LC
Codec ID : 40
Duration : 1h 48mn
Bit rate mode : Variable
Bit rate : 128 Kbps
Maximum bit rate : 170 Kbps
Channel(s) : 2 channels
Channel positions : Front: L R
Sampling rate : 48.0 KHz
Compression mode : Lossy
Stream size : 99.7 MiB (18%)
Encoded date : UTC 2015-04-25 18:32:57
Tagged date : UTC 2015-04-25 18:32:58


Трекер:  [ 25-Апр-2015 22:30 ]

  

Скачать .torrent

Размер .torrent файла 11 KB


Размер: 545 MB
Хэш (hash) релиза: 86fb6ad53978a64ba049b140cdc17ebf4c474db1

Еще никто не оставлял запись к записи скачать торрент [VIDEO] Заложница 3 . Будь первым!

!Обратная связь