Grubson - Gatunek L (2017) FLAC | Техника | Going Long (Waiting on the Sidelines)

Скачать через торрент [VIDEO] Энни Annie бесплатно русская версия torrent активатор

Статистика раздачи
Размер:  1.32 GB   |    Зарегистрирован:  3 года 2 месяца   |    .torrent скачан:  164 раза   |   
Раздают:  1  
   
загрузка...
 
Автор Сообщение

Galfimbul

avatar Galfimbul


Энни
Annie

Год выпуска: 2014
Страна: США (Marcy Media, Olive Bridge Entertainment, Sony Pictures Entertainment)
Жанр: Мюзикл, драма, комедия, семейный
Продолжительность: 01:58:23
Перевод: Профессиональный (полное дублирование) iTunes
Оригинальная дорожка: Нет
Cубтитры: Нет
Режиссер: Уилл Глак / Will Gluck
В ролях: Куавенжане Уоллис, Джейми Фокс, Роуз Бирн, Кэмерон Диаз, Бобби Каннавейл, Адевале Акиннуойе-Агбадже, Дэвид Зайас, Зои Маргарет Коллетти, Николетт Пьерини, Иден Дункан-Смит
Описание: Очаровательная и остроумная Энни живет в неприглядном приюте для сирот под присмотром зловредной воспитательницы. Но однажды, после встречи с богатым и успешным бизнесменом, ее унылая жизнь переворачивается…

Качество: HDRip (Рип с BDRip 1080p)
Формат: MP4
Видео: AVC, 960x400 (2.40:1), 1462 kbps, 23.976 fps
Аудио: Русский, AAC, 2 ch, 48 kHz, 128 kbps [Dub, iTunes]
На ранних стадиях работы над проектом на место режиссера рассматривался Райан Мерфи, но он отказался.
Первоначально продюсер фильма Уилл Смит предполагал, что главную роль в фильме исполнит его дочь Уиллоу Смит, но в итоге она покинула проект, потому что была слишком взрослой для роли Энни, и роль досталась Куавенжане Уоллис.
Сандра Буллок изначально рассматривалась на роль мисс Хэннигэн, но она отказалась. В итоге роль досталась Кэмерон Диаз.
Действующий мэр в фильме был назван в честь сценариста Харольда Грэя.
В сцене, где Уилльям Стакс ведет Энни и ее друзей в кино, актеров в фильме, который они смотрят, зовут Андреа Элвин (Andrea Alvin) и Саймон Гудспид (Simon Goodspeed), что является отсылкой к оригинальной бродвейской постановке. Андреа МакАрдл была первой Энни на Бродвее, и премьера постановки с ее участием прошла в театре «Alvin». «Goodspeed» — это название театра, в котором проходила премьера мюзикла «Энни» перед тем, как он попал на Бродвей.
Итальянский ресторан, в который Энни приходит каждую пятницу в поисках своих родителей, называется «Domani», что в переводе с итальянского означает «Завтра» — это отсылка к самой известной песне из этого мюзикла.
В начале фильма на классной доске среди имен президентов можно заметить имена Томаса Миана, автора оригинального романа, который лег в основу этого фильма, и Чарльза Страуза, композитора, написавшего музыку к оригинальному мюзиклу.
В конце 2014 года студия Sony Pictures стала жертвой атаки хакеров, в результате чего в свободном доступе появилась конфиденциальная корпоративная информация, а также несколько еще неизданных, но уже завершенных, фильмов. Так фильм «Энни» (2014) появился в Интернете в DVD-качестве еще до его выхода в прокат.
В качестве дани уважения к персонажу Дэдди Уорбаксу, которого Джейми Фокс играет в ремейке (Бенджамин Стакс), этот персонаж в фильме на самом деле лысый и носит парик, чтобы скрыть это.
Когда герои летят на вертолете, они разговаривают друг с другом, не используя наушники, что абсолютно невозможно.
Когда Энни и Грейс собираются уходить из «Domani», Грейс кладет свой мелок на коробку с канноли, однако секундой позже он оказывается у нее в руке.
Когда Энни перед началом одной из песен прыгает на камень в воде, то можно заметить, что это второй камень, но камера при этом быстро меняет ракурс, показывая, что Энни прыгает на первый камень.
Когда девочки просматривают форму, которую им дал инспектор, Миа спрашивает, что такое номер карточки социального страхования (Social Security Number), хотя в форме написана лишь аббревиатура «SSN».
Когда Стакс впервые обедает с Энни, уровень воды в его стакане несколько раз резко меняется при смене кадра.
Во время репризы песни «Завтра» Энни, Грейс и Уилл бегут, взявшись за руки, затем показывают кадр, в котором Грейс бежит на несколько шагов позади и не держит Энни за руку, а затем, после смены кадра, они снова все держатся за руки.
Когда мистер Стакс и остальная часть группы гонятся за машиной, в которой находится Энни, они пересекают мост Джорджа Вашингтона. Этот мост соединяет Нью-Йорк и Нью-Джерси. После того как автомобиль съезжает с моста и попадает в Нью-Джерси, его начинают преследовать машины полиции Нью-Йорка, а не Нью-Джерси. Более того, съехав с моста, герои сразу въезжают в Парк штата Либерти, который находится на расстоянии более 30 километров к югу.
Золотой глобус, 2015 год
Номинации (2):
Лучшая женская роль (комедия или мюзикл) (Куавенжане Уоллис)
Лучшая песня — «Song: Opportunity»

Золотая малина, 2015 год
Победитель (1):
Худший сиквел, ремейк или плагиат
Номинации (1):
Худшая женская роль второго плана (Кэмерон Диаз)
x264 [info]: frame I:1384 Avg QP:14.93 size: 83501
x264 [info]: frame P:29213 Avg QP:18.57 size: 18363
x264 [info]: frame B:106369 Avg QP:22.34 size: 3861

x264 [total]: encoded 136966 frames, 10.12 fps, 1488.20 kb/s
General
Complete name : [VIDEO] Annie.2014.HDRip.x264.960x(semen_52-TNC).mp4
Format : MPEG-4
Format profile : Base Media
Codec ID : isom
File size : 1.32 GiB
Duration : 1h 58mn
Overall bit rate mode : Variable
Overall bit rate : 1 597 Kbps
Movie name : [VIDEO] Annie 2014 HDRip 1080p x264 960x(semen_52-TNC)
ContentType : Short Film
Encoded date : UTC 2015-04-24 12:16:32
Tagged date : UTC 2015-04-24 12:18:07
Writing application : MkvToMp4 version: 0.224 (x64)
Comment : Rip by semen_52-TNC

Video
ID : 1
Format : AVC
Format/Info : Advanced Video Codec
Format profile : [email protected]
Format settings, CABAC : Yes
Format settings, ReFrames : 6 frames
Codec ID : avc1
Codec ID/Info : Advanced Video Coding
Duration : 1h 58mn
Bit rate : 1 462 Kbps
Maximum bit rate : 11.0 Mbps
Width : 960 pixels
Height : 400 pixels
Display aspect ratio : 2.40:1
Frame rate mode : Constant
Frame rate : 23.976 fps
Color space : YUV
Chroma subsampling : 4:2:0
Bit depth : 8 bits
Scan type : Progressive
Bits/(Pixel*Frame) : 0.159
Stream size : 1.21 GiB (91%)
Writing library : x264 core 130 r2273 b3065e6
Encoding settings : cabac=1 / ref=6 / deblock=1:-3:-3 / analyse=0x3:0x133 / me=esa / subme=9 / psy=1 / psy_rd=1.00:0.00 / mixed_ref=1 / me_range=32 / chroma_me=1 / trellis=2 / 8x8dct=1 / cqm=0 / deadzone=21,11 / fast_pskip=0 / chroma_qp_offset=-2 / threads=12 / lookahead_threads=2 / sliced_threads=0 / nr=0 / decimate=1 / interlaced=0 / bluray_compat=0 / constrained_intra=0 / bframes=8 / b_pyramid=2 / b_adapt=2 / b_bias=0 / direct=1 / weightb=1 / open_gop=0 / weightp=2 / keyint=250 / keyint_min=25 / scenecut=40 / intra_refresh=0 / rc_lookahead=60 / rc=crf / mbtree=1 / crf=19.5 / qcomp=0.60 / qpmin=0 / qpmax=69 / qpstep=4 / ip_ratio=1.40 / aq=1:1.00
Language : English
Encoded date : UTC 2015-04-24 12:16:32
Tagged date : UTC 2015-04-24 12:17:25

Audio
ID : 2
Format : AAC
Format/Info : Advanced Audio Codec
Format profile : LC
Codec ID : 40
Duration : 1h 58mn
Bit rate mode : Variable
Bit rate : 128 Kbps
Maximum bit rate : 133 Kbps
Channel(s) : 2 channels
Channel positions : Front: L R
Sampling rate : 48.0 KHz
Compression mode : Lossy
Stream size : 108 MiB (8%)
Title : Dub iTunes / Dub iTunes
Language : Russian
Encoded date : UTC 2015-04-24 12:16:51
Tagged date : UTC 2015-04-24 12:17:25


Трекер:  [ 25-Апр-2015 15:30 ]

  

Скачать .torrent

Размер .torrent файла 13 KB


Размер: 1.32 GB
Хэш (hash) релиза: 176fe698f8fe41cd45f4906e43057572bbb47f54

Еще никто не оставлял запись к записи скачать торрент [VIDEO] Энни Annie . Будь первым!

!Обратная связь