True Tears | Nos chers voisins au ski | Hand Shakers

Скачать через торрент Седьмой сын Seventh Son бесплатно русская версия torrent активатор

Статистика раздачи
Размер:  548 MB   |    Зарегистрирован:  3 года 2 месяца   |    .torrent скачан:  47 раз   |   
Раздают:  1  
   
загрузка...
 
Автор Сообщение

Galfimbul

avatar Galfimbul


Седьмой сын / Seventh Son
Год выпуска: 2014
Страна: США, Великобритания, Канада, Китай
Жанр: фэнтези, приключения
Продолжительность: 01:41:59
Перевод: Профессиональный (дублированный)
Оригинальная дорожка: Нет
Cубтитры: Нет
Режиссер: Сергей Бодров
В ролях: Сильвестр Сталлоне, Джейсон Стэйтем, Джет Ли, Антонио Бандерас, Уэсли Снайпс, Дольф Лундгрен, Мэл Гибсон, Харрисон Форд, Арнольд Шварценеггер, Келлан Латс, Терри Крюс, Сарай Гивати, Рэнди Кутюр, Ронда Раузи, Роберт Дави, Наталия Гуслистая, Виктор Ортис, Глен Пауэлл

Описание: Барни, Кристмас и остальные члены команды сходятся лицом к лицу с Конрадом Стоунбэнксом, многие годы назад основавшем вместе с Барни команду «Неудержимых». Впоследствии Стоунбэнкс становится безжалостным торговцем оружием и тем самым превращается в человека, которого Барни было поручено убить. Или по крайней мере он сам так считал. Теперь Стоунбэнкс, один раз уже сумевший обмануть смерть, поставил себе цель покончить с «Неудержимыми» — но у Барни на этот счет свои планы. Барни решает, что в его борьбе «свежий» подход можно противопоставить старым методам, и пополняет ряды людьми, которые моложе, быстрее и технически более подкованные. Так у членов команды «Неудержимых» начинается новая эра. Последняя миссия превращается в столкновение между представителями классической старой школы и экспертами в высоких технологиях.



Качество: BDRip (H.264)
Формат: MP4
Видео: AVC, 640x272 (2.35:1), 618 kbps, 23.976 fps
Аудио 1: Русский, AAC, 2 ch, 48 kHz, 128 kbps [DUB | License]
General
Complete name : X:\Всё для мобильных телефонов и КПК\Видео\Seventh Son. (2014) BDRip.mp4
Format : MPEG-4
Format profile : Base Media
Codec ID : isom
File size : 548 MiB
Duration : 1h 41mn
Overall bit rate : 751 Kbps
Movie name : Seventh Son. 2014
Writing application : XviD4PSP 7.0.122
Comment : MATROSKA,WEBM > MP4 / H264 > X264 CRF 21,0 HQ / AC3 > AAC-LC
Title/Sort : Seventh Son. 2014

Video
ID : 1
Format : AVC
Format/Info : Advanced Video Codec
Format profile : [email protected]
Format settings, CABAC : Yes
Format settings, ReFrames : 3 frames
Codec ID : avc1
Codec ID/Info : Advanced Video Coding
Duration : 1h 41mn
Bit rate : 618 Kbps
Width : 640 pixels
Height : 272 pixels
Display aspect ratio : 2.35:1
Frame rate mode : Variable
Frame rate : 23.976 fps
Minimum frame rate : 23.976 fps
Maximum frame rate : 24 000.000 fps
Color space : YUV
Chroma subsampling : 4:2:0
Bit depth : 8 bits
Scan type : Progressive
Bits/(Pixel*Frame) : 0.148
Stream size : 451 MiB (82%)
Title : BuR
Writing library : x264 core 146 r2538M 121396c
Encoding settings : cabac=1 / ref=3 / deblock=1:0:0 / analyse=0x3:0x133 / me=hex / subme=7 / psy=1 / psy_rd=1,00:0,20 / mixed_ref=1 / me_range=8 / chroma_me=1 / trellis=1 / 8x8dct=1 / cqm=0 / deadzone=21,11 / fast_pskip=1 / chroma_qp_offset=-3 / threads=6 / lookahead_threads=1 / sliced_threads=0 / nr=0 / decimate=1 / interlaced=0 / bluray_compat=0 / constrained_intra=0 / bframes=3 / b_pyramid=1 / b_adapt=2 / b_bias=0 / direct=3 / weightb=1 / open_gop=0 / weightp=2 / keyint=230 / keyint_min=23 / scenecut=40 / intra_refresh=0 / rc_lookahead=230 / rc=crf / mbtree=1 / crf=21,0 / qcomp=0,60 / qpmin=10 / qpmax=51 / qpstep=4 / ip_ratio=1,40 / aq=1:1,00
Language : English

Audio
ID : 2
Format : AAC
Format/Info : Advanced Audio Codec
Format profile : LC
Codec ID : 40
Duration : 1h 41mn
Bit rate mode : Constant
Bit rate : 128 Kbps
Channel(s) : 2 channels
Channel(s)_Original : 6 channels
Channel positions : Front: L C R, Side: L R, LFE
Sampling rate : 48.0 KHz
Compression mode : Lossy
Stream size : 93.4 MiB (17%)
Title : DUB | License
Language : Russian

Menu
00:00:00.000 : Chapter 01
00:04:50.415 : Chapter 02
00:10:28.544 : Chapter 03
00:16:40.582 : Chapter 04
00:22:40.359 : Chapter 05
00:27:40.450 : Chapter 06
00:30:17.690 : Chapter 07
00:36:45.203 : Chapter 08
00:42:37.388 : Chapter 09
00:49:54.741 : Chapter 10
00:54:45.073 : Chapter 11
00:57:48.548 : Chapter 12
01:02:53.144 : Chapter 13
01:06:53.968 : Chapter 14
01:11:29.285 : Chapter 15
01:18:36.920 : Chapter 16
01:22:10.300 : Chapter 17
01:25:32.669 : Chapter 18
01:30:15.034 : Chapter 19
01:33:21.095 : Chapter 20
01:41:59.488 : Chapter 21


Трекер:  [ 25-Апр-2015 15:00 ]

  

Скачать .torrent

Размер .torrent файла 11 KB


Размер: 548 MB
Хэш (hash) релиза: 3f06ace2caa8cd481314f11e8807809805e3f9cf

Торренты, похожие на Седьмой сын Seventh Son скачать торрент

Форум Название Автор Размер S L Добавлен
Видео (iPhone/iPod Touch/iPad) ·· Седьмой сын / Seventh Son (Сергей Бодров) [2014, США, Великобритания, Канада, Китай, фэнтези, приключения, WEB-DL HD (720p)] DUB, Original + SUB (rus, ukr, eng) Galfimbul 43671452344.07 GB 0 0 1436131121

00:18

6-Июл-15

Видео (Фильмы/Клипы) ·· [VIDEO] Седьмой сын / Seventh Son (Сергей Бодров / Sergey Bodrov) [2014, США, Великобритания, Канада, Китай, фэнтези, приключения, BDRip][MP4, 480x] Dub Galfimbul 494271658471 MB 0 0 1434464463

17:21

16-Июн-15

Видео (iPhone/iPod Touch/iPad) ·· [iPad] Седьмой сын / Seventh Son (Сергей Бодров / ) [2014, США, Великобритания, Канада, Фэнтези, приключения, BDRip, SD (576p)] DUB + Original + sub (rus, eng, ukr) Galfimbul 19302778461.8 GB 0 0 1429784227

13:17

23-Апр-15

Видео (iPhone/iPod Touch/iPad) ·· [ATV3] Седьмой сын / Seventh Son (Сергей Бодров / ) [2014, США, Великобритания, Канада, Фэнтези, приключения, BDRip, HD (1080p)] DUB + Original + sub (rus, eng, ukr) Galfimbul 73353010136.83 GB 0 0 1429746183

02:43

23-Апр-15

Видео (iPhone/iPod Touch/iPad) ·· [iPad] Седьмой сын / Seventh Son (Сергей Бодров) [2014, Великобритания, США, Канада, Китай, Фэнтези, приключения, WEB-DLRip, SD (576p)] DUB Galfimbul 18135621411.69 GB 0 0 1428405462

14:17

7-Апр-15

Еще никто не оставлял запись к записи скачать торрент Седьмой сын Seventh Son . Будь первым!

!Обратная связь