Suonerie Gratis per Android™ | Gi(a)rlish Number | Folge 20

Скачать через торрент [VIDEO] ЧБ бесплатно русская версия torrent активатор

Статистика раздачи
Размер:  902 MB   |    Зарегистрирован:  3 года 2 месяца   |    .torrent скачан:  93 раза   |   
Раздают:  1  
   
загрузка...
 
Автор Сообщение

Galfimbul

avatar Galfimbul


Ч/Б
Год выпуска: 2015
Страна: Россия (RSS Production)
Жанр: Комедия, криминал, фантастика
Продолжительность: 01:29:04
Перевод: Не требуется
Cубтитры: нет
Режиссер: Евгений Шелякин
В ролях: Алексей Чадов, Мераб Нинидзе, Сергей Маковецкий, Гурам Баблишвили, Бесо Гатаев, Кахи Кавсадзе, Екатерина Редникова, Мария Андреева, Мария Звонарёва, Андрей Руденский
Описание: Наши дни. Опасного авторитета-интеллектуала Алхана одновременно решают ограбить обманутый им Ярослав и мелкий жулик Нурик. По случайности во время их столкновения Нурик погибает, но возвращается в мир с миссией: быть ангелом-хранителем Ярослава. Вот только Ярослав при этом страдает «аллергией на Кавказ». Мистическим образом скованные вместе, эти двое вынуждены искать общий язык и спасаться от жаждущего расправы Алхана с его подручными.

Качество: WEB-DLRip (Рип с WEB-DL 1080p)
Формат: MP4
Видео: AVC, 960x400 (2.40:1), 1280 kbps, 25.000 fps
Аудио: Русский, AAC, 2 ch, 48 kHz, 128 kbps [Original, iTunes]
Сергей Маковецкий сначала рассматривался на роль Глеба, но по собственному желанию сыграл одну из ключевых ролей — Алхана.
Стадион, на который попадают герои фильма, находится в городе Сергиев Посад (Московская область). И называется этот стадион «Луч».
x264 [info]: frame I:985 Avg QP:15.21 size: 65902
x264 [info]: frame P:34982 Avg QP:18.59 size: 14429
x264 [info]: frame B:97646 Avg QP:23.52 size: 2920

x264 [total]: encoded 133613 frames, 12.48 fps, 1279.50 kb/s
General
Complete name : [VIDEO] 4-B.2015.WEB-DLRip.x264.960x.mp4
Format : MPEG-4
Format profile : Base Media
Codec ID : isom
File size : 902 MiB
Duration : 1h 29mn
Overall bit rate mode : Variable
Overall bit rate : 1 416 Kbps
Movie name : 4-B 2015 WEB-DLRip x264 960x
ContentType : Short Film
Encoded date : UTC 2015-04-24 06:40:23
Tagged date : UTC 2015-04-24 10:42:33
Writing application : MkvToMp4 version: 0.224 (x64)

Video
ID : 1
Format : AVC
Format/Info : Advanced Video Codec
Format profile : [email protected]
Format settings, CABAC : Yes
Format settings, ReFrames : 8 frames
Codec ID : avc1
Codec ID/Info : Advanced Video Coding
Duration : 1h 29mn
Bit rate : 1 280 Kbps
Maximum bit rate : 10.9 Mbps
Width : 960 pixels
Height : 400 pixels
Display aspect ratio : 2.40:1
Frame rate mode : Constant
Frame rate : 25.000 fps
Color space : YUV
Chroma subsampling : 4:2:0
Bit depth : 8 bits
Scan type : Progressive
Bits/(Pixel*Frame) : 0.133
Stream size : 815 MiB (90%)
Writing library : x264 core 130 r2273 b3065e6
Encoding settings : cabac=1 / ref=8 / deblock=1:-2:-1 / analyse=0x3:0x133 / me=esa / subme=9 / psy=1 / psy_rd=1.00:0.10 / mixed_ref=1 / me_range=32 / chroma_me=1 / trellis=2 / 8x8dct=1 / cqm=0 / deadzone=21,11 / fast_pskip=0 / chroma_qp_offset=-3 / threads=12 / lookahead_threads=2 / sliced_threads=0 / nr=0 / decimate=1 / interlaced=0 / bluray_compat=0 / constrained_intra=0 / bframes=6 / b_pyramid=2 / b_adapt=2 / b_bias=0 / direct=1 / weightb=1 / open_gop=0 / weightp=2 / keyint=250 / keyint_min=25 / scenecut=40 / intra_refresh=0 / rc_lookahead=60 / rc=crf / mbtree=1 / crf=19.0 / qcomp=0.60 / qpmin=0 / qpmax=69 / qpstep=4 / ip_ratio=1.40 / aq=1:0.90
Language : English
Encoded date : UTC 2015-04-24 06:40:23
Tagged date : UTC 2015-04-24 06:41:03

Audio
ID : 2
Format : AAC
Format/Info : Advanced Audio Codec
Format profile : LC
Codec ID : 40
Duration : 1h 29mn
Bit rate mode : Variable
Bit rate : 128 Kbps
Maximum bit rate : 135 Kbps
Channel(s) : 2 channels
Channel positions : Front: L R
Sampling rate : 48.0 KHz
Compression mode : Lossy
Stream size : 81.6 MiB (9%)
Title : Original / Original
Language : Russian
Encoded date : UTC 2015-04-24 06:40:39
Tagged date : UTC 2015-04-24 06:41:03


Трекер:  [ 25-Апр-2015 14:30 ]

  

Скачать .torrent

Размер .torrent файла 18 KB


Размер: 902 MB
Хэш (hash) релиза: ef55aa72c4b61f0e33fc8ed2ff859a84645e6f25

Торренты, похожие на [VIDEO] ЧБ скачать торрент

Форум Название Автор Размер S L Добавлен
Видео (Фильмы/Клипы) ·· [VIDEO] Ч/Б (Евгений Шелякин) [2014, Россия, комедия, криминал, фантастика, WEB-DLRip][MP4, 640x] Galfimbul 808659204771 MB 0 0 1455349543

10:45

13-Фев-16

Еще никто не оставлял запись к записи скачать торрент [VIDEO] ЧБ . Будь первым!

!Обратная связь