El Caballero Oscuro La Leyenda.. BLuRayRip | Gochuumon wa Usagi Desu ka? | Novelas Chocolate con pimienta 1x60

Скачать через торрент [VIDEO] Неудержимые 3 The Expendables 3 бесплатно русская версия torrent активатор

Статистика раздачи
Размер:  1.53 GB   |    Зарегистрирован:  3 года 3 месяца   |    .torrent скачан:  1607 раз   |   
Раздают:  1  
   
загрузка...
 
Автор Сообщение

Galfimbul

avatar Galfimbul


Неудержимые 3
The Expendables 3

Год выпуска: 2014
Страна: США, Франция (Davis-Films, Ex3 Productions, Fipex Holding, Lionsgate, Millennium Films, Nu Image / Millennium Films, Nu-Image Films)
Жанр: Боевик, триллер, приключения
Продолжительность: 02:11:31
Перевод 1: Профессиональный (дублированный) [BD Rus] + в непереведенных эпизодах вставлена озвучка Д. Есарева
Перевод 2: Авторский (одноголосый, закадровый) [Л. Володарский]
Перевод 3: Авторский (одноголосый, закадровый) [В. Горчаков]
Оригинальная дорожка: Нет
Cубтитры: Нет
Режиссер: Патрик Хьюз / Patrick Hughes
В ролях: Сильвестр Сталлоне, Джейсон Стэйтем, Джет Ли, Антонио Бандерас, Уэсли Снайпс, Дольф Лундгрен, Мэл Гибсон, Харрисон Форд, Арнольд Шварценеггер, Келлан Латс, Терри Крюс, Сарай Гивати, Рэнди Кутюр, Ронда Раузи, Роберт Дави, Наталия Гуслистая, Виктор Ортис, Глен Пауэлл
Описание: Барни, Кристмас и остальные члены команды сходятся лицом к лицу с Конрадом Стоунбэнксом, многие годы назад основавшем вместе с Барни команду «Неудержимых». Впоследствии Стоунбэнкс становится безжалостным торговцем оружием и тем самым превращается в человека, которого Барни было поручено убить. Или по крайней мере он сам так считал. Теперь Стоунбэнкс, один раз уже сумевший обмануть смерть, поставил себе цель покончить с «Неудержимыми» — но у Барни на этот счет свои планы. Барни решает, что в его борьбе «свежий» подход можно противопоставить старым методам, и пополняет ряды людьми, которые моложе, быстрее и технически более подкованные. Так у членов команды «Неудержимых» начинается новая эра. Последняя миссия превращается в столкновение между представителями классической старой школы и экспертами в высоких технологиях.

Качество: HDRip (Рип с BDRip 1080p)
Формат: MP4
Видео: AVC, 960x400 (2.40:1), 1267 kbps, 23.976 fps
Аудио 1: Русский, AAC, 2 ch, 48 kHz, 128 kbps [Dub, BD Rus + VO Д. Есарев]
Аудио 2: Русский, AAC, 2 ch, 48 kHz, 128 kbps [AVO, Л. Володарский]
Аудио 3: Русский, AAC, 2 ch, 48 kHz, 128 kbps [AVO, В. Горчаков]
Когда у Дока спрашивают, за что он попал в тюрьму, тот отвечает за неуплату налогов. Это прямая отсылка к актеру, сыгравшему роль Дока — Уэсли Снайпсу. Он действительно был осужден на три года и отсидел в тюрьме за неуплату налогов.
На роль Камиллы рассматривалась Милла Йовович, но в итоге она покинула проект.
Планировалось участие Жан-Клода Ван Дамма в роли брата-близнеца Жана Вилена — Клода Вилена.
Клинту Иствуду предлагали одну из ролей, но он отказался.
Дуэйн Джонсон и Халк Хоган были согласны играть, но им отказали.
В фильме мог сыграть Стивен Сигал.
Брюс Уиллис должен был сыграть роль Чёрча за гонорар в $ 3 миллиона (по $ 750,000 за каждый из четырех съемочных дней). Когда он потребовал $ 1 миллион в день, Сильвестр Сталлоне и продюсеры фильма отказали ему, после чего он покинул проект. Буквально через 3 дня Сталлоне заполучил на эту роль Харрисона Форда.
Сильвестр Сталлоне предлагал роль второго плана Джеки Чану, но тот отказался, потому что хотел сыграть одну из главных ролей.
Во время съемок сцены в грузовике с Джейсоном Стэйтемом произошла авария — из-за того, что отказали тормоза, грузовик упал в море. Актер не пострадал.
Николас Кейдж рассматривался на роль Бонапарта, прежде чем эту роль получил Келси Грэммер.
Микки Рурку предлагали сыграть роль Тула.
Съёмочный период Арнольда Шварценеггера составил чуть больше недели.
Лукас Тилл пробовался на роль Смайли, которую позже получил Келлан Латс.
Когда Барни Росс допрашивал Конрада Стоунбэнкса в фургоне, на заднем плане висит костюм N7 (фото), который принадлежит капитану Шепарду, главному герою компьютерной игры Mass Effect.
В этой части «Неудержимые» летают на перекрашенном в цвета своей команды советском военно-транспортном самолете Ан-26. Обозначения типа самолета сохранены на киле и в носовой части фюзеляжа. В некоторых сценах в кабине (в частности, за спиной первого пилота) можно заметить надписи на русском.
Мэлу Гибсону предлагали не только роль главного злодея, но еще и место режиссера проекта, но от последней должности он все же отказался.
Когда самолёт Барни и новой команды выходит на взлётную полосу, двигатели включены, но когда появляется старая команда, лопасть двигателя неподвижна.
x264 [info]: frame I:2374 Avg QP:15.56 size: 55799
x264 [info]: frame P:46746 Avg QP:19.27 size: 13139
x264 [info]: frame B:140085 Avg QP:22.49 size: 3589

x264 [total]: encoded 189205 frames, 10.99 fps, 1266.66 kb/s
General
Complete name : [VIDEO] The.Expendables.3.2014.EXTENDED.HDRip.3xRus.x264.960x(semen_52-TNC).mp4
Format : MPEG-4
Format profile : Base Media
Codec ID : isom
File size : 1.53 GiB
Duration : 2h 11mn
Overall bit rate mode : Variable
Overall bit rate : 1 665 Kbps
Movie name : [VIDEO] The Expendables 3 2014 EXTENDED HDRip 3xRus x264 960x(semen_52-TNC)
ContentType : Short Film
Encoded date : UTC 2015-04-23 15:00:20
Tagged date : UTC 2015-04-23 15:02:23
Writing application : MkvToMp4 version: 0.224 (x64)
Comment : Rip by semen_52-TNC

Video
ID : 1
Format : AVC
Format/Info : Advanced Video Codec
Format profile : [email protected]
Format settings, CABAC : Yes
Format settings, ReFrames : 8 frames
Codec ID : avc1
Codec ID/Info : Advanced Video Coding
Duration : 2h 11mn
Bit rate : 1 267 Kbps
Maximum bit rate : 9 802 Kbps
Width : 960 pixels
Height : 400 pixels
Display aspect ratio : 2.40:1
Frame rate mode : Constant
Frame rate : 23.976 fps
Color space : YUV
Chroma subsampling : 4:2:0
Bit depth : 8 bits
Scan type : Progressive
Bits/(Pixel*Frame) : 0.138
Stream size : 1.16 GiB (76%)
Writing library : x264 core 130 r2273 b3065e6
Encoding settings : cabac=1 / ref=8 / deblock=1:-3:-3 / analyse=0x3:0x133 / me=esa / subme=9 / psy=1 / psy_rd=1.00:0.15 / mixed_ref=1 / me_range=32 / chroma_me=1 / trellis=2 / 8x8dct=1 / cqm=0 / deadzone=21,11 / fast_pskip=0 / chroma_qp_offset=-3 / threads=12 / lookahead_threads=2 / sliced_threads=0 / nr=0 / decimate=1 / interlaced=0 / bluray_compat=0 / constrained_intra=0 / bframes=8 / b_pyramid=2 / b_adapt=2 / b_bias=0 / direct=1 / weightb=1 / open_gop=0 / weightp=2 / keyint=250 / keyint_min=25 / scenecut=40 / intra_refresh=0 / rc_lookahead=60 / rc=crf / mbtree=1 / crf=19.0 / qcomp=0.60 / qpmin=0 / qpmax=69 / qpstep=4 / ip_ratio=1.40 / aq=1:0.90
Language : English
Encoded date : UTC 2015-04-23 15:00:20
Tagged date : UTC 2015-04-23 15:00:59

Audio #1
ID : 2
Format : AAC
Format/Info : Advanced Audio Codec
Format profile : LC
Codec ID : 40
Duration : 2h 11mn
Bit rate mode : Variable
Bit rate : 128 Kbps
Maximum bit rate : 135 Kbps
Channel(s) : 2 channels
Channel positions : Front: L R
Sampling rate : 48.0 KHz
Compression mode : Lossy
Stream size : 120 MiB (8%)
Title : Dub BDRus / Dub BDRus
Language : Russian
Encoded date : UTC 2015-04-23 15:00:38
Tagged date : UTC 2015-04-23 15:00:59

Audio #2
ID : 3
Format : AAC
Format/Info : Advanced Audio Codec
Format profile : LC
Codec ID : 40
Duration : 2h 11mn
Bit rate mode : Variable
Bit rate : 128 Kbps
Maximum bit rate : 135 Kbps
Channel(s) : 2 channels
Channel positions : Front: L R
Sampling rate : 48.0 KHz
Compression mode : Lossy
Stream size : 120 MiB (8%)
Title : VO Volodarskiy / VO Volodarskiy
Language : Russian
Encoded date : UTC 2015-04-23 15:00:45
Tagged date : UTC 2015-04-23 15:00:59

Audio #3
ID : 4
Format : AAC
Format/Info : Advanced Audio Codec
Format profile : LC
Codec ID : 40
Duration : 2h 11mn
Bit rate mode : Variable
Bit rate : 128 Kbps
Maximum bit rate : 135 Kbps
Channel(s) : 2 channels
Channel positions : Front: L R
Sampling rate : 48.0 KHz
Compression mode : Lossy
Stream size : 120 MiB (8%)
Title : VO Gorchakov / VO Gorchakov
Language : Russian
Encoded date : UTC 2015-04-23 15:00:52
Tagged date : UTC 2015-04-23 15:00:59


Трекер:  [ 23-Апр-2015 18:30 ]

  

Скачать .torrent

Размер .torrent файла 16 KB


Размер: 1.53 GB
Хэш (hash) релиза: 35ef0963e0cb63fd0779279939eec825e20087e0

Торренты, похожие на [VIDEO] Неудержимые 3 The Expendables 3 скачать торрент

Форум Название Автор Размер S L Добавлен
Видео (Фильмы/Клипы) ·· [VIDEO] Неудержимые 3 / The Expendables 3 (Патрик Хьюз / Patrick Hughes) [2014, боевик, триллер, приключения, HDRip] [MP4, 960x] [Extended Cut] Dub Galfimbul 13762582511.28 GB 0 0 1418013200

07:33

8-Дек-14

Еще никто не оставлял запись к записи скачать торрент [VIDEO] Неудержимые 3 The Expendables 3 . Будь первым!

!Обратная связь