login to our site | Suki na Mono wa Suki Dakara Shou ga Nai!! | Top Gear: Season 22 (2015)

Скачать через торрент [MULT] Книга жизни The Book of Life бесплатно русская версия torrent активатор

Статистика раздачи
Размер:  804 MB   |    Зарегистрирован:  3 года 3 месяца   |    .torrent скачан:  78 раз   |   
Раздают:  1  
   
загрузка...
 
Автор Сообщение

Galfimbul

avatar Galfimbul


Книга жизни / The Book of Life
Год выпуска: 2014

Страна:
Жанр: Фэнтези, Мелодрама, Комедия, Приключения, Семейный
Продолжительность: 01:35:24
Перевод: Профессиональный (дублированный) Blu-ray EUR
Cубтитры: нет
Режиссер: Хорхе Р. Гутьеррес / Jorge R. Gutierrez
В ролях: Диего Луна, Зои Салдана, Ченнинг Татум, Рон Перлман, Кристина Эпплгейт, Айс Кьюб, Кейт дель Кастильо, Гектор Элизондо, Дэнни Трехо, Карлос Аласраки В мультфильме описывается романтическая история любви на фоне празднования Дня мертвых в Мексике.
Духи Ла Муэрте и Шибальба посещают городок Сан Анхель в День Мёртвых, где они заключают пари после того как встречают пару мальчишек, Маноло и Хоакина, которые хотят завоевать сердце Марии.Кинопоиск | IMDB
[b]Качество: HDRip
Исходник: The.Book.of.Life.2014.720p.BluRay HDclub
Формат: MP4
Видео: AVC, 640x264 (2,40:1), 1047 kbps, 23,976fps
Аудио: Русский [Дубляж], AAC, 48kHz, (2 ch), 128,0 kbps[/b]
ОбщееПолное имя : The Book of Life 2014.mp4Формат : MPEG-4Профиль формата : Base MediaИдентификатор кодека : isomРазмер файла : 804 МбайтПродолжительность : 1 ч. 35 м.Режим общего битрейта : ПеременныйОбщий поток : 1178 Кбит/секДата кодирования : UTC 2015-04-22 01:21:02Дата пометки : UTC 2015-04-22 01:21:02

ВидеоИдентификатор : 1Формат : AVCФормат/Информация : Advanced Video CodecПрофиль формата : [email protected]Параметр CABAC формата : ДаПараметр ReFrames формата : 9 кадровИдентификатор кодека : avc1Идентификатор кодека/Информация : Advanced Video CodingПродолжительность : 1 ч. 35 м.Битрейт : 1047 Кбит/секМаксимальный битрейт : 6017 Кбит/секШирина : 640 пикселейВысота : 264 пикселяСоотношение сторон : 2,40:1Режим частоты кадров : ПостоянныйЧастота кадров : 23,976 кадра/секЦветовое пространство : YUVСубдискретизация насыщенности : 4:2:0Битовая глубина : 8 битТип развёртки : ПрогрессивнаяБит/(Пиксели*Кадры) : 0.258Размер потока : 714 Мбайт (89%)Библиотека кодирования : x264 core 125 r2208 d9d2288Дата кодирования : UTC 2015-04-22 01:21:02Дата пометки : UTC 2015-04-22 01:21:50

АудиоИдентификатор : 2Формат : AACФормат/Информация : Advanced Audio CodecПрофиль формата : LCИдентификатор кодека : 40Продолжительность : 1 ч. 35 м.Вид битрейта : ПеременныйБитрейт : 128 Кбит/секМаксимальный битрейт : 174 Кбит/секКаналы : 2 каналаРасположение каналов : Front: L RЧастота : 48,0 КГцМетод сжатия : С потерямиРазмер потока : 87,3 Мбайт (11%)Дата кодирования : UTC 2015-04-22 01:21:46Дата пометки : UTC 2015-04-22 01:21:50


Трекер:  [ 22-Апр-2015 21:00 ]

  

Скачать .torrent

Размер .torrent файла 16 KB


Размер: 804 MB
Хэш (hash) релиза: 7570cf059dc65375453e229f93d6081a1e6cf483

Еще никто не оставлял запись к записи скачать торрент [MULT] Книга жизни The Book of Life . Будь первым!

!Обратная связь