приключения | Policial | Red Dog True Blue 20 16 1080p BluRay x264-[YTS AG] mkv

Скачать через торрент [MULT] Драконы: Защитники Олуха Dragons: Defenders of Berk бесплатно русская версия torrent активатор

Статистика раздачи
Размер:  5.43 GB   |    Зарегистрирован:  3 года 3 месяца   |    .torrent скачан:  107 раз   |   
Раздают:  1  
   
загрузка...
 
Автор Сообщение

Galfimbul

avatar Galfimbul


[url=...4990867] [/url]
Драконы: Защитники Олуха
Dragons: Defenders of Berk

Год выпуска: 2014
Страна: США (DreamWorks Animation SKG)
Жанр: Фэнтези, приключения, комедия, семейный
Продолжительность: 20 х ~00:22:00
Перевод: Профессиональный (полное дублирование) [Невафильм]
Оригинальная дорожка: Английский
Cубтитры: Русские, полные, отключаемые
Режиссер: Энтони Белл / Anthony Bell, Джон Энг / John Eng, Джон Санфорд / John Sanford, Луи Дел Кармен / Louie del Carmen
Роли озвучивали: Джей Барушель (Иккинг / Hiccup), Америка Феррера (Астрид / Astrid), Кристофер Минц-Плассе (Рыбьеног / Fishlegs), ТиДжей Миллер (Задирака / Tuffnut), Нолан Норт (Стоик / Stoick), Крис Эджерли (Плевака / Gobber), Зак Перлман (Сморкала / Snotlout), Эндри Вермелен (Забияка / Ruffnut), Тим Конуэй (Шлак / Mulch), Томас Ф. Уилсон (Ведрон / Bucket), Стивен Рут (Гнилец / Mildew), Марк Хэмилл (Элвин Вероломный / Alvin the Treacherous), Пол Ругг (Дикарь / Savage), Дэвид Фаустино (Дагур Остервенелый / Dagur the Deranged), Майкл Голдстром (Торговец Йохан / Trader Johann), Дэвид Теннант (Spitelout Jorgenson), Лукас Грабил (Густав / Gustav)
Роли дублировали: Андрей Лёвин (Иккинг), Валерий Соловьев (с 1 по 9 серию) / Борис Хасанов (с 10 по 20 серию) (Стоик), Алексей Макрецкий (Плевака), Софья Ануфриева (Астрид), Михаил Хрусталёв (Сморкала), Игорь Виноградов (Рыбьеног), Александр Разбаш (Задирака), Марианна Талалакина (Семенова) (Забияка)
Описание: Приключения драконов и всадников Олуха продолжаются. В новом сезоне юные викинги берут на себя ответственность по защите Олуха. Они формируют тайный Драконий Клуб, чтобы сражаться со старыми врагами с новыми знаниями о драконах и новыми лётными навыками, и начинают становиться из опытных всадников отважными защитниками.
Вместе с храбрыми друзьями - людьми, и верными союзниками - драконами, Иккинг и Беззубик выступят против старых неприятелей и новых врагов. Их ожидают захватывающие приключения, они столкнутся с редкими и дикими драконами, а также с врагом, способным поставить под угрозу само существование острова Олух.
Сериал служит мостом, связывающим фильм "Как приручить дракона" с его продолжением "Как приручить дракона 2", создатели которого тесно работают с создателями сериала. Вследствие всего этого в самом "Как приручить дракона 2" есть отсылки и сюрпризы, которые поймут только те, кто смотрел сериал.

Все раздачи сериала
Качество: WEB-DLRip (Рип с [url=...4660656]WEB-DL 1080p[/url])
Формат: MP4
Видео: H.264, 960х536 (16:9), ~1500 Kbps (crf=19.5), 23.976 fps
Аудио 1: Русский, AAC, 2 ch, 48 kHz, 128 kbps [Dub, Невафильм]
Аудио 2: Английский, AAC, 2 ch, 48 kHz, 128 kbps [Original]
1. Живи и летай / Live and Let Fly
2. Железный Громмель / The Iron Gronckle
3. Ночная ярость / The Night and the Fury
4. Враг под ногами / Tunnel Vision
5. Остров Огненных Драконов / Race to Fireworm Island
6. Испытание ужасом / Fright of Passage
7. Последний в соревновании / Worst in Show
8. Зверский аппетит / Appetite for Destruction
9. Капкан для Пристеголова / Zippleback Down
10. Виды на Кревета – Часть 1 / A View to a Skrill – Part 1
11. Виды на Кревета – Часть 2 / A View to a Skrill – Part 2
12. Удачная замена / The Flight Stuff
13. Свободу Дракоше / Free Scauldy
14. Лютая стужа / Frozen
15. Повесть о двух драконах / A Tale of Two Dragons
16. Эффект угря / The Eel Effect
17. Дым разъедает глаза / Smoke Gets in Your Eyes
18. Бим! Бам! Бум! / Bing! Bam! Boom!
19. Отверженный – Часть 1 / Cast Out – Part 1
20. Отверженный – Часть 2 / Cast Out – Part 2
Случайно удалил все логи сезона
General
Complete name : Dragons.Defenders.of.Berk.S02.2014.WEB-DLRip.x264.960x(semen_52-TNC)\S02E02.The.Iron.Gronckle.WEB-DLRip.x264.960x(semen_52-TNC).mp4
Format : MPEG-4
Format profile : Base Media
Codec ID : isom
File size : 313 MiB
Duration : 22mn 37s
Overall bit rate mode : Variable
Overall bit rate : 1 932 Kbps
Collection : Dragons Defenders of Berk
Season : 2
Part : 2
ContentType : TV Show
Encoded date : UTC 2015-04-21 13:11:41
Tagged date : UTC 2015-04-21 13:11:53
Writing application : MkvToMp4 version: 0.224 (x64)
Comment : Rip by semen_52-TNC
Title/Sort : Dragons Defenders of Berk

Video
ID : 1
Format : AVC
Format/Info : Advanced Video Codec
Format profile : [email protected]
Format settings, CABAC : Yes
Format settings, ReFrames : 8 frames
Codec ID : avc1
Codec ID/Info : Advanced Video Coding
Duration : 22mn 37s
Bit rate : 1 665 Kbps
Maximum bit rate : 5 634 Kbps
Width : 960 pixels
Height : 536 pixels
Display aspect ratio : 16:9
Frame rate mode : Constant
Frame rate : 23.976 fps
Color space : YUV
Chroma subsampling : 4:2:0
Bit depth : 8 bits
Scan type : Progressive
Bits/(Pixel*Frame) : 0.135
Stream size : 269 MiB (86%)
Writing library : x264 core 130 r2273 b3065e6
Encoding settings : cabac=1 / ref=8 / deblock=1:-1:-1 / analyse=0x3:0x113 / me=umh / subme=9 / psy=1 / psy_rd=0.90:0.15 / mixed_ref=1 / me_range=32 / chroma_me=1 / trellis=2 / 8x8dct=1 / cqm=0 / deadzone=21,11 / fast_pskip=0 / chroma_qp_offset=-3 / threads=12 / lookahead_threads=2 / sliced_threads=0 / nr=0 / decimate=1 / interlaced=0 / bluray_compat=0 / constrained_intra=0 / bframes=6 / b_pyramid=2 / b_adapt=2 / b_bias=0 / direct=1 / weightb=1 / open_gop=0 / weightp=2 / keyint=250 / keyint_min=25 / scenecut=40 / intra_refresh=0 / rc_lookahead=60 / rc=crf / mbtree=1 / crf=19.5 / qcomp=0.60 / qpmin=0 / qpmax=69 / qpstep=4 / ip_ratio=1.40 / aq=1:1.00
Language : English
Encoded date : UTC 2015-04-21 13:11:41
Tagged date : UTC 2015-04-21 13:11:47
Color primaries : BT.709
Transfer characteristics : BT.709
Matrix coefficients : BT.709
Color range : Limited

Audio #1
ID : 2
Format : AAC
Format/Info : Advanced Audio Codec
Format profile : LC
Codec ID : 40
Duration : 22mn 37s
Bit rate mode : Variable
Bit rate : 128 Kbps
Maximum bit rate : 132 Kbps
Channel(s) : 2 channels
Channel positions : Front: L R
Sampling rate : 48.0 KHz
Compression mode : Lossy
Stream size : 20.7 MiB (7%)
Title : Dub Nevafilm / Dub Nevafilm
Language : Russian
Encoded date : UTC 2015-04-21 13:11:45
Tagged date : UTC 2015-04-21 13:11:47

Audio #2
ID : 3
Format : AAC
Format/Info : Advanced Audio Codec
Format profile : LC
Codec ID : 40
Duration : 22mn 37s
Bit rate mode : Variable
Bit rate : 128 Kbps
Maximum bit rate : 135 Kbps
Channel(s) : 2 channels
Channel positions : Front: L R
Sampling rate : 48.0 KHz
Compression mode : Lossy
Stream size : 20.7 MiB (7%)
Title : Original / Original
Language : English
Encoded date : UTC 2015-04-21 13:11:46
Tagged date : UTC 2015-04-21 13:11:47

Text
ID : 4
Format : Timed Text
Muxing mode : sbtl
Codec ID : tx3g
Duration : 22mn 5s
Bit rate mode : Variable
Bit rate : 104 bps
Stream size : 16.9 KiB (0%)
Title : Full / Full
Language : Russian
Encoded date : UTC 2015-04-21 13:11:47
Tagged date : UTC 2015-04-21 13:11:47


Трекер:  [ 22-Апр-2015 08:00 ]

  

Скачать .torrent

Размер .torrent файла 29 KB


Размер: 5.43 GB
Хэш (hash) релиза: 335789edf89a23ac036185ec098f633b2db073da

Еще никто не оставлял запись к записи скачать торрент [MULT] Драконы: Защитники Олуха Dragons: Defenders of Berk . Будь первым!

!Обратная связь