Francisco Reyes | Advanced Renamer 3 82 Commercial - SeuPirate | Disneys Wochenend-Kids

Скачать через торрент [MULT] Драконы и всадники Олуха Dragons: Riders of Berk бесплатно русская версия torrent активатор

Статистика раздачи
Размер:  5.36 GB   |    Зарегистрирован:  3 года 2 месяца   |    .torrent скачан:  1639 раз   |   
Раздают:  1  
   
загрузка...
 
Автор Сообщение

Galfimbul

avatar Galfimbul


Драконы и всадники Олуха
Dragons: Riders of Berk

Год выпуска: 2013
Страна: США (DreamWorks Animation SKG)
Жанр: Фэнтези, приключения, комедия, семейный
Продолжительность: 20 х ~00:22:00
Перевод: Профессиональный (полное дублирование) [Невафильм]
Оригинальная дорожка: Английский
Cубтитры: Русские, полные, отключаемые
Режиссер: Энтони Белл / Anthony Bell, Джон Санфорд / John Sanford, Джон Энг / John Eng
Роли озвучивали: Джей Барушель (Иккинг / Hiccup), Америка Феррера (Астрид / Astrid), Кристофер Минц-Плассе (Рыбьеног / Fishlegs), ТиДжей Миллер (Задирака / Tuffnut), Нолан Норт (Стоик / Stoick), Крис Эджерли (Плевака / Gobber), Зак Перлман (Сморкала / Snotlout), Джули Маркус (Забияка / Ruffnut), Тим Конуэй (Шлак / Mulch), Томас Ф. Уилсон (Ведрон / Bucket), Стивен Рут (Гнилец / Mildew), Марк Хэмилл (Элвин Вероломный / Alvin the Treacherous), Пол Ругг (Дикарь / Savage), Дэвид Фаустино (Дагур Остервенелый / Dagur the Deranged), Мэй Уитман (Хэдер / Heather), Майкл Голдстром (Торговец Йохан / Trader Johann), Дэвид Теннант (Spitelout Jorgenson)
Роли дублировали: Андрей Лёвин (Иккинг), Валерий Соловьев (Стоик), Алексей Макрецкий (Плевака), Софья Ануфриева (Астрид), Михаил Хрусталёв (Сморкала), Игорь Виноградов (Рыбьеног), Александр Разбаш (Задирака), Марианна Талалакина (Семенова) (Забияка), Ирина Обрезкова (Хэдер)
Описание: Викинги Олуха и их бывшие враги — драконы — теперь живут вместе в мире и покое, однако такое соседство всё равно не так уж гармонично, как хотелось бы. Несмотря на мирное сосуществование, драконы всё-таки остаются существами непредсказуемыми и опасными, реагирующими на многие вещи совершенно неожиданно. Иккинг решается открыть Школу для дрессировки драконов на Олухе, чтобы помочь драконам влиться в общество людей.
Сериал начинается после событий фильма "Как приручить дракона", и повествует о дальнейших приключениях Иккинга и его верного дракона Беззубика, а также остальных ребят, у каждого из которых теперь есть свой дракон. Во время тренировок друзьям удалось установить особые дружеские связи со своими драконами, изучив особенности и силу каждого из них. Судьба занесёт наших героев в самые разные места, где они откроют совершенно новых драконов, найдут новые приключения и будут сражаться с новыми злодеями, познавая мир, о котором даже и не подозревали.
Сериал служит мостом, связывающим фильм "Как приручить дракона" с его продолжением "Как приручить дракона 2", создатели которого тесно работают с создателями сериала. Вследствие всего этого в самом "Как приручить дракона 2" есть отсылки и сюрпризы, которые поймут только те, кто смотрел сериал.

Все раздачи сериала
Качество: WEB-DLRip (Рип с [url=...4369777]WEB-DL 1080p[/url])
Формат: MP4
Видео кодек: H.264
Аудио кодек: AAC
Видео: 960х536 (16:9), ~1500 Kbps (crf=19.5), 23.976 fps
Аудио: Русский, 2 ch, 48 kHz, 128 kbps [Dub, Невафильм]
1. Как устроить Школу Драконов / How to Start a Dragon Academy
2. Викинг в поисках работы / Viking for Hire
3. Обитель домашних животных / Animal House
4. Грозная пара / The Terrible Twos
5. На драконов уповаем / In Dragons We Trust
6. Элвин и Изгои / Alvin and the Outcasts
7. Как подобрать себе дракона / How to Pick Your Dragon
8. Портрет Иккинга-здоровяка / Portrait of Hiccup as a Buff Man
9. Драконий цветок / Dragon Flower
10. Донесение Хэдер – Часть 1 / Heather Report – Part 1
11. Донесение Хэдер – Часть 2 / Heather Report – Part 2
12. День Весенья / Thawfest
13. Двойное помешательство / Twinsanity
14. Когда ударит молния / When Lightning Strikes
15. Кто там летает внизу? / What Flies Beneath
16. Отступник / Defiant One
17. Топь / Breakneck Bog
18. Разноцветный самоцвет / Gem of a Different Color
19. Мы - одна семья – Часть 1 / We Are Family – Part 1
20. Мы - одна семья – Часть 2 / We Are Family – Part 2
x264 [info]: frame I:305 Avg QP:13.41 size:103471
x264 [info]: frame P:8761 Avg QP:17.25 size: 14763
x264 [info]: frame B:23520 Avg QP:22.68 size: 3140

x264 [total]: encoded 32586 frames, 22.38 fps, 1381.74 kb/s
General
Complete name : G:\!!!RG\MULT\Dragons.Riders.of.Berk.S01.2013.WEB-DLRip.x264.960x(semen_52-TNC)\S01E02.Viking.for.Hire.WEB-DLRip.x264.960x(semen_52-TNC).mp4
Format : MPEG-4
Format profile : Base Media
Codec ID : isom
File size : 267 MiB
Duration : 22mn 39s
Overall bit rate mode : Variable
Overall bit rate : 1 650 Kbps
Collection : Dragons: Riders of Berk
Season : 1
Part : 2
Track name : Dragons: Riders of Berk S01E02
ContentType : TV Show
Encoded date : UTC 2015-04-20 16:28:23
Tagged date : UTC 2015-04-20 16:28:45
Writing application : MkvToMp4 [www.mkvtomp4.ru] version: 0.224 (x64)
Comment : Rip by semen_52
Title/Sort : Dragons: Riders of Berk

Video
ID : 1
Format : AVC
Format/Info : Advanced Video Codec
Format profile : [email protected]
Format settings, CABAC : Yes
Format settings, ReFrames : 8 frames
Codec ID : avc1
Codec ID/Info : Advanced Video Coding
Duration : 22mn 39s
Bit rate : 1 382 Kbps
Maximum bit rate : 5 925 Kbps
Width : 960 pixels
Height : 536 pixels
Display aspect ratio : 16:9
Frame rate mode : Constant
Frame rate : 23.976 fps
Color space : YUV
Chroma subsampling : 4:2:0
Bit depth : 8 bits
Scan type : Progressive
Bits/(Pixel*Frame) : 0.112
Stream size : 224 MiB (84%)
Writing library : x264 core 130 r2273 b3065e6
Encoding settings : cabac=1 / ref=8 / deblock=1:-1:-1 / analyse=0x3:0x113 / me=umh / subme=9 / psy=1 / psy_rd=0.90:0.15 / mixed_ref=1 / me_range=32 / chroma_me=1 / trellis=2 / 8x8dct=1 / cqm=0 / deadzone=21,11 / fast_pskip=0 / chroma_qp_offset=-3 / threads=12 / lookahead_threads=2 / sliced_threads=0 / nr=0 / decimate=1 / interlaced=0 / bluray_compat=0 / constrained_intra=0 / bframes=6 / b_pyramid=2 / b_adapt=2 / b_bias=0 / direct=1 / weightb=1 / open_gop=0 / weightp=2 / keyint=250 / keyint_min=25 / scenecut=40 / intra_refresh=0 / rc_lookahead=60 / rc=crf / mbtree=1 / crf=19.5 / qcomp=0.60 / qpmin=0 / qpmax=69 / qpstep=4 / ip_ratio=1.40 / aq=1:1.00
Language : English
Encoded date : UTC 2015-04-20 16:28:23
Tagged date : UTC 2015-04-20 16:28:38
Color primaries : BT.709
Transfer characteristics : BT.709
Matrix coefficients : BT.709
Color range : Limited

Audio #1
ID : 2
Format : AAC
Format/Info : Advanced Audio Codec
Format profile : LC
Codec ID : 40
Duration : 22mn 39s
Bit rate mode : Variable
Bit rate : 128 Kbps
Maximum bit rate : 135 Kbps
Channel(s) : 2 channels
Channel positions : Front: L R
Sampling rate : 48.0 KHz
Compression mode : Lossy
Stream size : 20.7 MiB (8%)
Title : Dub Nevafilm / Dub Nevafilm
Language : Russian
Encoded date : UTC 2015-04-20 16:28:27
Tagged date : UTC 2015-04-20 16:28:38

Audio #2
ID : 3
Format : AAC
Format/Info : Advanced Audio Codec
Format profile : LC
Codec ID : 40
Duration : 22mn 39s
Bit rate mode : Variable
Bit rate : 128 Kbps
Maximum bit rate : 134 Kbps
Channel(s) : 2 channels
Channel positions : Front: L R
Sampling rate : 48.0 KHz
Compression mode : Lossy
Stream size : 20.7 MiB (8%)
Title : Original / Original
Language : English
Encoded date : UTC 2015-04-20 16:28:33
Tagged date : UTC 2015-04-20 16:28:38

Text
ID : 4
Format : Timed Text
Muxing mode : sbtl
Codec ID : tx3g
Duration : 22mn 11s
Bit rate mode : Variable
Bit rate : 157 bps
Stream size : 25.5 KiB (0%)
Title : Full / Full
Language : Russian
Encoded date : UTC 2015-04-20 16:28:37
Tagged date : UTC 2015-04-20 16:28:38


Трекер:  [ 21-Апр-2015 11:30 ]

  

Скачать .torrent

Размер .torrent файла 29 KB


Размер: 5.36 GB
Хэш (hash) релиза: 04c6cd86040a59504c5a8f7d71d0cee480dcdb23

Еще никто не оставлял запись к записи скачать торрент [MULT] Драконы и всадники Олуха Dragons: Riders of Berk . Будь первым!

!Обратная связь