American Horror Story 3. Sezon | Sci-Fi and Fantasy | Вечерний Ургант

Скачать через торрент [VIDEO] Человек-волк The Wolfman бесплатно русская версия torrent активатор

Статистика раздачи
Размер:  495 MB   |    Зарегистрирован:  3 года 2 месяца   |    .torrent скачан:  33 раза   |   
Раздают:  1  
   
загрузка...
 
Автор Сообщение

Galfimbul

avatar Galfimbul


Человек-волк / The Wolfman
[b]Режиссерская версия / Unrated Directors Cut
«Бойся полной Луны»

Год выпуска: 2010
Страна: США
Жанр: ужасы, триллер, драма
Продолжительность: 01:59:05
Перевод: Профессиональный (полное дублирование) Лицензия
Режиссер: Джо Джонстон / Joe Johnston
Сценаристы: Эндрю Кевин Уокер / Andrew Kevin Walker, Дэвид Селф / David Self, Курт Сьодмак / Curt Siodmak
Оператор: Шелли Джонсон / Shelly Johnson
Композитор: Дэнни Элфман / Danny Elfman
В ролях:
Бенисио Дель Торо / Benicio Del Toro (Lawrence Talbot), Энтони Хопкинс / Anthony Hopkins (Sir John Talbot), Эмили Блант / Emily Blunt (Gwen Conliffe), Хьюго Уивинг / Hugo Weaving (Aberline), Саймон Мерреллс / Simon Merrells (Ben Talbot), Джемма Уилан / Gemma Whelan (Gwen's Maid), Марио Марин-Боркес / Mario Marin-Borquez (Young Lawrence), Эйса Баттерфилд / Asa Butterfield (Young Ben), Кристина Контес / Cristina Contes (Solana) и другие .
Бюджет: $150 000 000Сборы в США: $61 979 680Сборы в мире: + $80 182 231 = $142 161 911Сборы в России: $4 734 766DVD в США: $17 497 111Зрители: 7.86 млн, 857.5 тыс., 832.3 тыс.,Премьера (мир): 11 февраля 1998Премьера (РФ): 23 февраля 2010, «UPI»Премьера (Укр.): 18 февраля 2010Релиз на DVD: 30 октября 2008, «Союз-Видео»Релиз на Blu-Ray: 22 июня 2010, «Юниверсал Пикчерс Рус»
Описание: Эта история разворачивается в Великобритании. Герой возвращается на Родину из Америки для того, чтобы найти без вести пропавшего брата. До него доходят слухи о том, что в предмеcтьях города обитает страшное существо, которое разрывает на части жителей окрестных деревень. Дело расследует полиция Скотланд-Ярда, вскоре их заинтересовывает джентльмен, приехавший на поиски брата.
[/b]

Фильм должен был снимать Марк Романек, но он покинул проект из-за финансовых разногласий.
Грим человека-волка накладывали на Бенисио Дель Торо в течение 3 часов и снимали в течение часа.
Гример Рик Бэйкер сначала снял маску с лица Бенисио дель Торо, а затем вылепил на ней волчью морду. На основе слепка он изготовил из стеклопластика нечто вроде литейной формы и заполнил ее полимерной пеной. Когда латекс схватился, получились элементы маски, которые можно было укрепить на лице актера, — капюшон с волчьими ушами и лицевая часть с выступающей мордой. Оставалось лишь наложить пряди натуральной шерсти яка.

Релиз группы
Качество: HDRip / [url=...3595689]BDRip 720p[/url]
Формат: MP4
Видео кодек: XviD 1.3.3
Аудио кодек: AAC
Видео: 480x256 AR:1.85 450 kbps, 23.976 fps
Аудио: [Russian] 2ch 48 kHz 128 kbps - [Dub] | Лицензия
GeneralComplete name : J:\Torrents\The Wolfman.2010.HDRip.XviD.480x.rip Frost O.S.mp4Format : MPEG-4Format profile : Base Media / Version 2Codec ID : mp42File size : 495 MiBDuration : 1h 59mnOverall bit rate mode : VariableOverall bit rate : 581 KbpsEncoded date : UTC 2015-04-19 16:22:45Tagged date : UTC 2015-04-19 16:22:45

VideoID : 201Format : MPEG-4 VisualFormat profile : Advanced [email protected] settings, BVOP : YesFormat settings, QPel : NoFormat settings, GMC : No warppointsFormat settings, Matrix : CustomCodec ID : 20Duration : 1h 59mnBit rate mode : VariableBit rate : 450 KbpsMaximum bit rate : 4 510 KbpsWidth : 480 pixelsHeight : 256 pixelsDisplay aspect ratio : 1.85:1Frame rate mode : ConstantFrame rate : 23.976 fpsColor space : YUVChroma subsampling : 4:2:0Bit depth : 8 bitsScan type : ProgressiveCompression mode : LossyBits/(Pixel*Frame) : 0.153Stream size : 383 MiB (77%)Writing library : XviD 73Encoded date : UTC 2015-04-19 16:22:45Tagged date : UTC 2015-04-19 16:23:17

AudioID : 101Format : AACFormat/Info : Advanced Audio CodecFormat profile : LCCodec ID : 40Duration : 1h 58mnBit rate mode : VariableBit rate : 128 KbpsMaximum bit rate : 256 KbpsChannel(s) : 2 channelsChannel positions : Front: L RSampling rate : 48.0 KHzCompression mode : LossyStream size : 109 MiB (22%)Encoded date : UTC 2015-04-19 16:23:09Tagged date : UTC 2015-04-19 16:23:17


Трекер:  [ 20-Апр-2015 18:30 ]

  

Скачать .torrent

Размер .torrent файла 20 KB


Размер: 495 MB
Хэш (hash) релиза: 336277827cdee712b3e297d27efdca11d702d4cd

Еще никто не оставлял запись к записи скачать торрент [VIDEO] Человек-волк The Wolfman . Будь первым!

!Обратная связь