Peter Wight | Parasyte: The Maxim | Bombshell Hot Milf [Amateur, Milf] [3072*2304, 39]

Скачать через торрент [VIDEO] Человек-волк The Wolfman бесплатно русская версия torrent активатор

Статистика раздачи
Размер:  1.66 GB   |    Зарегистрирован:  3 года 2 месяца   |    .torrent скачан:  43 раза   |   
Раздают:  1  
   
загрузка...
 
Автор Сообщение

Galfimbul

avatar Galfimbul


Человек-волк / The Wolfman
«Бойся полной Луны»

Год выпуска: 2010
Страна: США
Жанр: ужасы, триллер, драма
Продолжительность: 01:59:05
Перевод №1: Профессиональный (полное дублирование) Лицензия
Перевод №2: Авторский (одноголосый, закадровый) Гаврилов
Перевод №3: Авторский (одноголосый, закадровый) Немахов
Режиссер: Джо Джонстон / Joe Johnston
Сценаристы: Эндрю Кевин Уокер / Andrew Kevin Walker, Дэвид Селф / David Self, Курт Сьодмак / Curt Siodmak
Оператор: Шелли Джонсон / Shelly Johnson
Композитор: Дэнни Элфман / Danny Elfman
В ролях:
Бенисио Дель Торо / Benicio Del Toro (Lawrence Talbot), Энтони Хопкинс / Anthony Hopkins (Sir John Talbot), Эмили Блант / Emily Blunt (Gwen Conliffe), Хьюго Уивинг / Hugo Weaving (Aberline), Саймон Мерреллс / Simon Merrells (Ben Talbot), Джемма Уилан / Gemma Whelan (Gwen's Maid), Марио Марин-Боркес / Mario Marin-Borquez (Young Lawrence), Эйса Баттерфилд / Asa Butterfield (Young Ben), Кристина Контес / Cristina Contes (Solana) и другие .
Бюджет: $150 000 000Сборы в США: $61 979 680Сборы в мире: + $80 182 231 = $142 161 911Сборы в России: $4 734 766DVD в США: $17 497 111Зрители: 7.86 млн, 857.5 тыс., 832.3 тыс.,Премьера (мир): 11 февраля 1998Премьера (РФ): 23 февраля 2010, «UPI»Премьера (Укр.): 18 февраля 2010Релиз на DVD: 30 октября 2008, «Союз-Видео»Релиз на Blu-Ray: 22 июня 2010, «Юниверсал Пикчерс Рус»
Описание: Эта история разворачивается в Великобритании. Герой возвращается на Родину из Америки для того, чтобы найти без вести пропавшего брата. До него доходят слухи о том, что в предмеcтьях города обитает страшное существо, которое разрывает на части жителей окрестных деревень. Дело расследует полиция Скотланд-Ярда, вскоре их заинтересовывает джентльмен, приехавший на поиски брата.

Фильм должен был снимать Марк Романек, но он покинул проект из-за финансовых разногласий.
Грим человека-волка накладывали на Бенисио Дель Торо в течение 3 часов и снимали в течение часа.
Гример Рик Бэйкер сначала снял маску с лица Бенисио дель Торо, а затем вылепил на ней волчью морду. На основе слепка он изготовил из стеклопластика нечто вроде литейной формы и заполнил ее полимерной пеной. Когда латекс схватился, получились элементы маски, которые можно было укрепить на лице актера, — капюшон с волчьими ушами и лицевая часть с выступающей мордой. Оставалось лишь наложить пряди натуральной шерсти яка.

Релиз группы
Качество: HDRip / [url=...3595689]BDRip 720p[/url]
Формат: MP4
Видео кодек: H.264 (x264 core 130 r2273)
Аудио кодек: AAC
Видео: 960x520 AR:1.85 1605 kbps, 23.976 fps
Аудио №1: [Russian] 2ch 48 kHz 128 kbps - [Dub] | Лицензия
Аудио №2: [Russian] 2ch 48 kHz 128 kbps - [VO] | Гаврилов
Аудио №3: [Russian] 2ch 48 kHz 128 kbps - [VO] | Немахов
GeneralComplete name : J:\Torrents\The Wolfman.2010.HDRip.x264.960x.rip by Frost O.S.mp4Format : MPEG-4Format profile : Base MediaCodec ID : isomFile size : 1.66 GiBDuration : 1h 59mnOverall bit rate mode : VariableOverall bit rate : 1 997 KbpsMovie name : The Wolfman.2010.HDRip.x264.960x.rip by Frost O.SPerformer : Джо ДжонстонGenre : HorrorContentType : Short FilmRecorded date : 27 января 2010Encoded date : UTC 2015-04-18 19:38:39Tagged date : UTC 2015-04-18 19:42:24Writing application : MkvToMp4 version: 0.224 (x64)Cover : YesComment : rip by Frost O.SLongDescription : Эта история разворачивается в Великобритании. Герой возвращается на Родину из Америки для того, чтобы найти без вести пропавшего брата. До него доходят слухи о том, что в предмеcтьях города обитает страшное существо, которое разрывает на части жителей окрестных деревень. Дело расследует полиция Скотланд-Ярда, вскоре их заинтересовывает джентльмен, приехавший на поиски брата.ContentRating : ru-movie|16+|375|iTunMOVI : <?xml version="1.0" encoding="UTF-8"?> / <!DOCTYPE plist PUBLIC "-//Apple//DTD PLIST 1.0//EN" "http://www.apple.com/DTDs/PropertyList-1.0.dtd"> / <plist version="1.0"> / <dict> / <key>cast</key> / <array> / <dict> / <key>name</key> / <string>Бенисио Дель Торо</string> / </dict> / <dict> / <key>name</key> / <string>Энтони Хопкинс</string> / </dict> / <dict> / <key>name</key> / <string>Эмили Блант</string> / </dict> / <dict> / <key>name</key> / <string>Хьюго Уивинг</string> / </dict> / <dict> / <key>name</key> / <string>Саймон Мерреллс</string> / </dict> / <dict> / <key>name</key> / <string>Джемма Уилан</string> / </dict> / <dict> / <key>name</key> / <string>Марио Марин-Боркес</string> / </dict> / <dict> / <key>name</key> / <string>Эйса Баттерфилд и другие .</string> / </dict> / </array> / <key>directors</key> / <array> / <dict> / <key>name</key> / <string>Джо Джонстон</string> / </dict> / </array> / <key>screenwriters</key> / <array> / <dict> / <key>name</key> / <string>Эндрю Кевин Уокер</string> / </dict> / <dict> / <key>name</key> / <string>Дэвид Селф</string> / </dict> / <dict> / <key>name</key> / <string>Курт Сьодмак</string> / </dict> / </array> / </dict> / </plist>

VideoID : 1Format : AVCFormat/Info : Advanced Video CodecFormat profile : [email protected] settings, CABAC : YesFormat settings, ReFrames : 8 framesCodec ID : avc1Codec ID/Info : Advanced Video CodingDuration : 1h 59mnBit rate : 1 605 KbpsMaximum bit rate : 11.1 MbpsWidth : 960 pixelsHeight : 520 pixelsDisplay aspect ratio : 1.85:1Frame rate mode : ConstantFrame rate : 23.976 fpsColor space : YUVChroma subsampling : 4:2:0Bit depth : 8 bitsScan type : ProgressiveBits/(Pixel*Frame) : 0.134Stream size : 1.34 GiB (80%)Writing library : x264 core 130 r2273 b3065e6Encoding settings : cabac=1 / ref=8 / deblock=1:-3:-3 / analyse=0x3:0x113 / me=umh / subme=9 / psy=1 / psy_rd=1.00:0.15 / mixed_ref=1 / me_range=24 / chroma_me=0 / trellis=2 / 8x8dct=1 / cqm=0 / deadzone=21,11 / fast_pskip=0 / chroma_qp_offset=-3 / threads=3 / lookahead_threads=1 / sliced_threads=0 / nr=0 / decimate=0 / interlaced=0 / bluray_compat=0 / constrained_intra=0 / bframes=3 / b_pyramid=2 / b_adapt=2 / b_bias=0 / direct=3 / weightb=1 / open_gop=0 / weightp=2 / keyint=240 / keyint_min=25 / scenecut=40 / intra_refresh=0 / rc_lookahead=60 / rc=2pass / mbtree=1 / bitrate=1605 / ratetol=1.0 / qcomp=0.60 / qpmin=0 / qpmax=69 / qpstep=4 / cplxblur=20.0 / qblur=0.5 / vbv_maxrate=50000 / vbv_bufsize=62500 / nal_hrd=none / ip_ratio=1.40 / aq=1:1.20Language : EnglishEncoded date : UTC 2015-04-18 19:38:39Tagged date : UTC 2015-04-18 19:40:41Color primaries : BT.709Transfer characteristics : BT.709Matrix coefficients : BT.709

Audio #1ID : 2Format : AACFormat/Info : Advanced Audio CodecFormat profile : LCCodec ID : 40Duration : 1h 58mnBit rate mode : VariableBit rate : 128 KbpsMaximum bit rate : 135 KbpsChannel(s) : 2 channelsChannel positions : Front: L RSampling rate : 48.0 KHzCompression mode : LossyStream size : 109 MiB (6%)Title : [Dub]Language : RussianEncoded date : UTC 2015-04-18 19:39:28Tagged date : UTC 2015-04-18 19:40:41

Audio #2ID : 3Format : AACFormat/Info : Advanced Audio CodecFormat profile : LCCodec ID : 40Duration : 1h 58mnBit rate mode : VariableBit rate : 128 KbpsMaximum bit rate : 133 KbpsChannel(s) : 2 channelsChannel positions : Front: L RSampling rate : 48.0 KHzCompression mode : LossyStream size : 109 MiB (6%)Title : [VO] GavrilovLanguage : RussianEncoded date : UTC 2015-04-18 19:40:15Tagged date : UTC 2015-04-18 19:40:41

Audio #3ID : 4Format : AACFormat/Info : Advanced Audio CodecFormat profile : LCCodec ID : 40Duration : 1h 58mnBit rate mode : VariableBit rate : 128 KbpsMaximum bit rate : 135 KbpsChannel(s) : 2 channelsChannel positions : Front: L RSampling rate : 48.0 KHzCompression mode : LossyStream size : 109 MiB (6%)Title : [VO] NemahovLanguage : RussianEncoded date : UTC 2015-04-18 19:40:29Tagged date : UTC 2015-04-18 19:40:41


Трекер:  [ 20-Апр-2015 18:30 ]

  

Скачать .torrent

Размер .torrent файла 17 KB


Размер: 1.66 GB
Хэш (hash) релиза: c308816a19fae3dc5323c8168fc0ac2bd6b8dfea

Еще никто не оставлял запись к записи скачать торрент [VIDEO] Человек-волк The Wolfman . Будь первым!

!Обратная связь