The Truth Beneath | Game of Thrones Season 6 Complete HDTV 720p x265 AAC E-Subs [GWC] | Entertainment Humor

Скачать через торрент [VIDEO] Приключения Паддингтона Paddington бесплатно русская версия torrent активатор

Статистика раздачи
Размер:  1.08 GB   |    Зарегистрирован:  3 года 2 месяца   |    .torrent скачан:  44 раза   |   
Раздают:  1  
   
загрузка...
 
Автор Сообщение

Galfimbul

avatar Galfimbul


Приключения Паддингтона
Paddington

Год выпуска: 2014
Страна: Великобритания, Франция (Amazon Prime Instant Video, Anton Capital Entertainment (ACE))
Жанр: Комедия, семейный, экранизация
Продолжительность: 01:35:12
Перевод: Профессиональный (полное дублирование)
Оригинальная дорожка: Нет
Cубтитры: Нет
Режиссер: Пол Кинг / Paul King
В ролях: Бен Уишоу, Николь Кидман, Хью Бонневилль, Салли Хокинс, Джули Уолтерс, Мадлен Харрис, Сэмюэл Джослин, Джим Бродбент, Питер Капальди, Имелда Стонтон, Майкл Гэмбон, Тим Дауни, Мадлен Уорролл, Лотти Стир, Джеффри Палмер, Тереза Уотсон, Майкл Бонд, Мэтт Лукас, Джуд Райт, Кайван Новак
Описание: Из Перу в Лондон приплывает невероятно милый говорящий медвежонок. Всю свою жизнь он мечтал приехать именно в этот город и стать частью настоящей английской семьи. Он уверен, что все люди в Великобритании очень вежливы и обходительны, поэтому у него не возникнет здесь никаких проблем. Однако он оказывается в городе в типичный час-пик, во время которого, не то, что медвежонка, а и человека вполне могут задавить. По счастливой случайности, ему удается найти пристанище в настоящей английской семье. Однако он не вызвал доверия у хозяев, и они пообещали найти ему приют в Лондоне, попутно предложив взять себе имя Паддингтон, в честь лондонского вокзала, на котором его нашли...

Качество: HDRip (Рип с BDRip 1080p)
Формат: MP4
Видео: AVC, 960x400 (2.40:1), 1488 kbps, 23.976 fps
Аудио: Русский, AAC, 2 ch, 48 kHz, 128 kbps [Dub]
Фильм снят на основе серии книг Майкла Бонда о медвежонке Паддингтоне.
Первоначально медвежонка Паддингтона должен был озвучивать Хью Лори и Колин Фёрт.
Когда Паддингтон ползет по трубе, у него отключается один из пылесосов, это является отсылкой к фильму «Миссия невыполнима: Протокол фантом» (2011).
Британская академия, 2015 год
Номинации (2):
Лучший адаптированный сценарий
Премия имени Александра Корды за самый выдающийся британский фильм года
x264 [info]: frame I:1384 Avg QP:14.93 size: 83501
x264 [info]: frame P:29213 Avg QP:18.57 size: 18363
x264 [info]: frame B:106369 Avg QP:22.34 size: 3861

x264 [total]: encoded 136966 frames, 10.12 fps, 1488.20 kb/s
General
Complete name : [VIDEO] Paddington.2014.HDRip.x264.960x(semen_52-TNC).mp4
Format : MPEG-4
Format profile : Base Media
Codec ID : isom
File size : 1.08 GiB
Duration : 1h 35mn
Overall bit rate mode : Variable
Overall bit rate : 1 624 Kbps
Movie name : [VIDEO] Paddington 2014 HDRip x264 960x(semen_52-TNC)
ContentType : Short Film
Encoded date : UTC 2015-04-17 19:55:22
Tagged date : UTC 2015-04-17 19:56:40
Writing application : MkvToMp4 version: 0.224 (x64)
Comment : Rip by semen_52-TNC

Video
ID : 1
Format : AVC
Format/Info : Advanced Video Codec
Format profile : [email protected]
Format settings, CABAC : Yes
Format settings, ReFrames : 8 frames
Codec ID : avc1
Codec ID/Info : Advanced Video Coding
Duration : 1h 35mn
Bit rate : 1 488 Kbps
Maximum bit rate : 11.9 Mbps
Width : 960 pixels
Height : 400 pixels
Display aspect ratio : 2.40:1
Frame rate mode : Constant
Frame rate : 23.976 fps
Color space : YUV
Chroma subsampling : 4:2:0
Bit depth : 8 bits
Scan type : Progressive
Bits/(Pixel*Frame) : 0.162
Stream size : 1 013 MiB (92%)
Writing library : x264 core 130 r2273 b3065e6
Encoding settings : cabac=1 / ref=8 / deblock=1:-3:-2 / analyse=0x3:0x113 / me=esa / subme=9 / psy=1 / psy_rd=1.00:0.15 / mixed_ref=1 / me_range=32 / chroma_me=1 / trellis=2 / 8x8dct=1 / cqm=0 / deadzone=21,11 / fast_pskip=0 / chroma_qp_offset=-3 / threads=12 / lookahead_threads=2 / sliced_threads=0 / nr=0 / decimate=1 / interlaced=0 / bluray_compat=0 / constrained_intra=0 / bframes=10 / b_pyramid=2 / b_adapt=2 / b_bias=0 / direct=1 / weightb=1 / open_gop=0 / weightp=2 / keyint=250 / keyint_min=25 / scenecut=40 / intra_refresh=0 / rc_lookahead=60 / rc=crf / mbtree=1 / crf=18.6 / qcomp=0.60 / qpmin=0 / qpmax=69 / qpstep=4 / ip_ratio=1.40 / aq=1:1.00
Language : English
Encoded date : UTC 2015-04-17 19:55:22
Tagged date : UTC 2015-04-17 19:56:14
Color primaries : BT.709
Transfer characteristics : BT.709
Matrix coefficients : BT.709
Color range : Limited

Audio
ID : 2
Format : AAC
Format/Info : Advanced Audio Codec
Format profile : LC
Codec ID : 40
Duration : 1h 35mn
Bit rate mode : Variable
Bit rate : 128 Kbps
Maximum bit rate : 134 Kbps
Channel(s) : 2 channels
Channel positions : Front: L R
Sampling rate : 48.0 KHz
Compression mode : Lossy
Stream size : 87.2 MiB (8%)
Title : Dub / Dub
Language : Russian
Encoded date : UTC 2015-04-17 19:55:36
Tagged date : UTC 2015-04-17 19:56:14


Трекер:  [ 17-Апр-2015 23:00 ]

  

Скачать .torrent

Размер .torrent файла 11 KB


Размер: 1.08 GB
Хэш (hash) релиза: 20f7ab00737c173501ebae761d78ead771fa9f3c

Еще никто не оставлял запись к записи скачать торрент [VIDEO] Приключения Паддингтона Paddington . Будь первым!

!Обратная связь