Succession | Privacy Policy | Downloaden APK

Скачать через торрент [VIDEO] Падение последней империи 1911 бесплатно русская версия torrent активатор

Статистика раздачи
Размер:  398 MB   |    Зарегистрирован:  3 года 2 месяца   |    .torrent скачан:  41 раз   |   
Раздают:  1  
   
загрузка...
 
Автор Сообщение

Galfimbul

avatar Galfimbul


Падение последней империи / 1911 / Xinhai geming
«Великая Китайская революция»

Год выпуска: 2011
Страна: Китай, Гонконг
Жанр: боевик, драма, приключения, военный, история
Продолжительность: 01:39:12
Перевод №1: Профессиональный (многоголосый закадровый) Лицензия
Режиссеры: Ли Чжан / Li Zhang, Джеки Чан / Jackie Chan
Сценаристы: Ван Синдун / Wang Xingdong, Чэнь Баогуан / Chen Baoguang
Оператор: Вэй Хуанг / Wei Huang
В ролях: Джеки Чан / Jackie Chan (Huang Xing), Уинстон Чао / Winston Chao (Sun Yat-sen), Ли Бинбин / Li Bingbing (в титрах: Bingbing Lee) (Xu Zonghan), Сунь Чунь / Sun Chun (Yuan Shikai), Джоан Чэнь / Joan Chen (Empress Longyu), У Цзян / Wu Jiang (Li Yuanhong), Джейси Чан / Jaycee Chan (Zhang Zhenwu), Гэ Ху / Ge Hu (Lin Juemin) и другие .
Бюджет: $18 000 000
Сборы в США: $135 739
Зрители Китай: 1.73 млн
Премьера (мир): 23 сентября 2011
Релиз на DVD: 30 августа 2012, «CP Дистрибуция»
Описание: Китай, 1911 г. Период политической нестабильности и революционных настроений в государстве. На фоне общей неразберихи и неопределённости, некто Сунь Ятсен поднимает восстание и направляет мощь своих войск с одной единственной целью — свергнуть правящую династию Цин и установить новый, социально направленный режим управления республикой..

Первое время в России фильм имел название «1911», но позже ему вернули оригинальное название.


Когда революционный лидер находится на океанском лайнере, следующем в Китай, спасательные шлюпки на палубе слишком современные: они окрашены в ярко-оранжевый цвет и имеют встроенные двигатели. Действие фильма происходит в 1911 году, и спасательные шлюпки того времени были безмоторными лодками, как правило, окрашенными в белый цвет.
Черно-красно-золотые флаги Германии, показанные в некоторых сценах, стали применяться только после 1949 года. В 1911 году немецкие флаги должны были быть черно-бело-красными.

Релиз группы
Качество: HDRip / [url=...4169577]BDRip 720p[/url]
Формат: MP4
Видео кодек: XviD 1.3.3
Аудио кодек: AAC
Видео: 480x200 AR:2.40 429 kbps, 23.976 fps
Аудио №1: [Russian] 2ch 48 kHz 128 kbps - [MVO]
GeneralComplete name : J:\Torrents\1911.2011.HDRip.x264.480x.rip by Frost O.S.mp4Format : MPEG-4Format profile : Base MediaCodec ID : isomFile size : 398 MiBDuration : 1h 39mnOverall bit rate mode : VariableOverall bit rate : 561 KbpsMovie name : 1911 2011 HDRip x264 480x rip by Frost O SPerformer : Ли Чжан, Джеки ЧанGenre : WarContentType : Short FilmRecorded date : 23 сентября 2011Encoded date : UTC 2015-04-16 20:46:24Tagged date : UTC 2015-04-16 20:46:58Writing application : MkvToMp4 version: 0.224 (x64)Cover : YesComment : rip by Frost O.SLongDescription : Китай, 1911 г. Период политической нестабильности и революционных настроений в государстве. На фоне общей неразберихи и неопределённости, некто Сунь Ятсен поднимает восстание и направляет мощь своих войск с одной единственной целью — свергнуть правящую династию Цин и установить новый, социально направленный режим управления республикой.ContentRating : ru-movie|18+|400|iTunMOVI : <?xml version="1.0" encoding="UTF-8"?> / <!DOCTYPE plist PUBLIC "-//Apple//DTD PLIST 1.0//EN" "http://www.apple.com/DTDs/PropertyList-1.0.dtd"> / <plist version="1.0"> / <dict> / <key>cast</key> / <array> / <dict> / <key>name</key> / <string>Джеки Чан</string> / </dict> / <dict> / <key>name</key> / <string>Ли Бинбин</string> / </dict> / <dict> / <key>name</key> / <string>Уинстон Чао</string> / </dict> / <dict> / <key>name</key> / <string>Джоан Чэнь</string> / </dict> / <dict> / <key>name</key> / <string>Джейси Чан</string> / </dict> / <dict> / <key>name</key> / <string>Ху Гэ</string> / </dict> / <dict> / <key>name</key> / <string>Минг Ху</string> / </dict> / <dict> / <key>name</key> / <string>Хуанг Жи Жонг</string> / </dict> / <dict> / <key>name</key> / <string>Цзян Вэньли и другие</string> / </dict> / </array> / <key>directors</key> / <array> / <dict> / <key>name</key> / <string>Ли Чжан</string> / </dict> / <dict> / <key>name</key> / <string>Джеки Чан</string> / </dict> / </array> / <key>producers</key> / <array> / <dict> / <key>name</key> / <string>Гоцин Гу</string> / </dict> / <dict> / <key>name</key> / <string>Бин Гуо</string> / </dict> / <dict> / <key>name</key> / <string>Питер Лам</string> / </dict> / <dict> / <key>name</key> / <string>Цяньхон Ки</string> / </dict> / <dict> / <key>name</key> / <string>Сяою Шен</string> / </dict> / <dict> / <key>name</key> / <string>Дафан Ванг</string> / </dict> / <dict> / <key>name</key> / <string>Лиан Ю</string> / </dict> / <dict> / <key>name</key> / <string>Ли Чжоу</string> / </dict> / <dict> / <key>name</key> / <string>Писю Чжоу</string> / </dict> / <dict> / <key>name</key> / <string>Ли-Чжуань Лью</string> / </dict> / <dict> / <key>name</key> / <string>Чжун-лунь Жэнь</string> / </dict> / </array> / <key>screenwriters</key> / <array> / <dict> / <key>name</key> / <string>Ван Синдун</string> / </dict> / <dict> / <key>name</key> / <string>Чэнь Баогуан</string> / </dict> / </array> / </dict> / </plist>

VideoID : 1Format : MPEG-4 VisualFormat profile : Advanced [email protected] settings, BVOP : YesFormat settings, QPel : NoFormat settings, GMC : No warppointsFormat settings, Matrix : CustomCodec ID : 20Duration : 1h 39mnBit rate mode : VariableBit rate : 429 KbpsMaximum bit rate : 2 766 KbpsWidth : 480 pixelsHeight : 200 pixelsDisplay aspect ratio : 2.40:1Frame rate mode : ConstantFrame rate : 23.976 fpsColor space : YUVChroma subsampling : 4:2:0Bit depth : 8 bitsScan type : ProgressiveCompression mode : LossyBits/(Pixel*Frame) : 0.187Stream size : 305 MiB (76%)Writing library : XviD 73Language : EnglishTagged date : UTC 2015-04-16 20:46:30

AudioID : 2Format : AACFormat/Info : Advanced Audio CodecFormat profile : LCCodec ID : 40Duration : 1h 39mnBit rate mode : VariableBit rate : 128 KbpsMaximum bit rate : 135 KbpsChannel(s) : 2 channelsChannel positions : Front: L RSampling rate : 48.0 KHzCompression mode : LossyStream size : 90.8 MiB (23%)Title : [MVO]Language : RussianEncoded date : UTC 2015-04-16 20:46:28Tagged date : UTC 2015-04-16 20:46:30


Трекер:  [ 17-Апр-2015 15:30 ]

  

Скачать .torrent

Размер .torrent файла 16 KB


Размер: 398 MB
Хэш (hash) релиза: f24805a7fb6e0b5287efd976eb8d2839b87cca28

Торренты, похожие на [VIDEO] Падение последней империи 1911 скачать торрент

Форум Название Автор Размер S L Добавлен
Видео (Фильмы/Клипы) ·· [VIDEO] Падение последней империи / 1911 / Xinhai geming (Ли Чжан / Li Zhang, Джеки Чан / Jackie Chan) [2011, боевик, драма, HDRip] [MP4, 960x] MVO Galfimbul 13108394541.22 GB 0 0 1429274874

15:47

17-Апр-15

Еще никто не оставлял запись к записи скачать торрент [VIDEO] Падение последней империи 1911 . Будь первым!

!Обратная связь