Watch movie | Science-Fiction | John Henry Richardson

Скачать через торрент [SERIAL] Портал юрского периода: Новый мир Primeval: New World бесплатно русская версия torrent активатор

Статистика раздачи
Размер:  1.87 GB   |    Зарегистрирован:  3 года 3 месяца   |    .torrent скачан:  36 раз   |   
Раздают:  1  
   
загрузка...
 
Автор Сообщение

Galfimbul

avatar Galfimbul


Портал юрского периода: Новый мир / Primeval: New World

Год выпуска: 2012

Страна: Канада , Великобритания

Жанр: Научная фантастика, драма

Продолжительность: 00:44:00

Перевод: Профессиональный (многоголосый закадровый)

Cубтитры: нет

Режиссер: Аманда Тэппинг, Энди Микита, Мартин Вуд, Майк Рол

В ролях: Найалл Мэйттер, Сара Каннинг, Кристал Лоу, Миранда Фригон, Джофф Густафссон, Дэнни Рахим, Эндрю Ли Поттс

Описание: На территории Ванкувера неожиданно появляются динозавры и другие доисторические животные. Виной тому - аномалии, созданные порталами в пространстве и времени. Изучением этих аномалий и существ занимаются группа гражданских под предводительством Эвана Кросса.
«Портал юрского периода: Новый мир» — научно-фантастический сериал британско-канадского производства. Это спин-офф (ответвление) британского сериала «Портал юрского периода». События разворачиваются после пятого сезона оригинального сериала. Режиссируют сериал Аманда Тэппинг и Энди Микита (Звёздные врата)

Качество: HDTVRip (1-10 серии), WEB-DLRip (11, 12 серия)

Формат: AVI

Видео: Video: 320x176 (1.33:1), 25 fps, XviD build 50 ~323 kbps avg, 0.19 bit/pixel
Аудио: Audio: 48 kHz, MPEG Layer 3, 2 ch, ~128.00 kbps avg
01: "The New World - Новый мир"
02: "Sisiutl - Сисиутл"
03: "Fear of Flying - Аэрофобия"
04: "Angry Birds - Злые птички"
05: "Undone - Погубленные"
06: "Clean up on Aisle Three - Зачистка в супермаркете"
07: "Babes in the Woods - Крошки в лесу"
08: "Truth - Истина"
09: "Breakthrough - Прорыв"
10: "The Great Escape - Большой побег"
11: "The Inquisition - Расследование"
12: "The Sound of Thunder. Part 1 - И грянул гром ч.1"
13: "The Sound of Thunder. Part 2 - И грянул гром ч.2"
GeneralComplete name : G:\Portal-2\Портал Юрского периода. Новый мир (1 сезон) (BaibaKo)\Primeval.New.World.s01e01.aviFormat : AVIFormat/Info : Audio Video InterleaveFile size : 140 MiBDuration : 42mn 22sOverall bit rate : 463 KbpsWriting application : Lavf52.57.1

VideoID : 0Format : xvidCodec ID : xvidDuration : 42mn 20sBit rate : 323 KbpsWidth : 320 pixelsHeight : 176 pixelsDisplay aspect ratio : 16:9Frame rate : 23.976 fpsBits/(Pixel*Frame) : 0.239Stream size : 97.8 MiB (70%)

AudioID : 1Format : MPEG AudioFormat version : Version 1Format profile : Layer 3Mode : Joint stereoCodec ID : 55Codec ID/Hint : MP3Duration : 42mn 22sBit rate mode : ConstantBit rate : 128 KbpsChannel(s) : 2 channelsSampling rate : 44.1 KHzCompression mode : LossyStream size : 38.8 MiB (28%)Alignment : Aligned on interleavesInterleave, duration : 26 ms (0.63 video frame)


Трекер:  [ 14-Апр-2015 16:30 ]

  

Скачать .torrent

Размер .torrent файла 21 KB


Размер: 1.87 GB
Хэш (hash) релиза: 34c23020187cf960e282f489c9dd7f95def87381

Еще никто не оставлял запись к записи скачать торрент [SERIAL] Портал юрского периода: Новый мир Primeval: New World . Будь первым!

!Обратная связь