Isabella Rossellini | Love, Simon 2018 HDCAM ENG | Watch Movie

Скачать через торрент [VIDEO] 12 бесплатно русская версия torrent активатор

Статистика раздачи
Размер:  1.32 GB   |    Зарегистрирован:  3 года 3 месяца   |    .torrent скачан:  47 раз   |   
Раздают:  1  
   
загрузка...
 
Автор Сообщение

Galfimbul

avatar Galfimbul


12 (Двенадцать)

Год выпуска: 2007

Страна: Россия
Жанр: Триллер, драма, криминал, детектив
Продолжительность: 02:35:05
Перевод: Не требуется
Cубтитры: нет

Режиссер: Никита Михалков
В ролях: Сергей Маковецкий, Никита Михалков, Сергей Гармаш, Валентин Гафт, Алексей Петренко, Юрий Стоянов, Сергей Газаров, Михаил Ефремов, Алексей Горбунов, Сергей Арцибашев
Описание: История о 12-ти присяжных, обсуждающих, виновен ли 18-летний юноша, обвиняемый в убийстве своего отчима — офицера Российской армии, воевавшего в Чечне

Качество: HDRip
Формат: AVI
Видео: XviD, 640x272, 1079 kbps, 25 fps
Аудио: MP3, 2 ch, 44,1 khz, 128 kbps
GeneralНазвание : D:\Видео\Рип\12.aviФормат : AVIФормат/Info : Audio Video InterleaveРазмер файла : 1.32 GiBДлительность : 2h 35mnОбщий Битрейт : 1 219 Kbps

VideoID : 0Формат : MPEG-4 VisualФормат profile : Advanced [email protected]Формат настройки, BVOP : NoФормат настройки, QPel : NoФормат настройки, GMC : No warppointsФормат настройки, Matrix : Default (H.263)Кодек ID : XVIDКодек ID/Hint : XviDДлительность : 2h 35mnБитрейт : 1 079 KbpsWidth : 640 пикселейВысота : 272 пикселейСоотношение кадра : 2.35:1Частота кадров : 25.000 fpsЦветопередача : YUVChroma subsampling : 4:2:0Разрядность : 8 bitsТип сканирования : ProgressiveРежим сжатия : LossyBits/(Pixel*Frame) : 0.248Размер потока : 1.17 GiB (88%)

AudioID : 1Формат : MPEG AudioФормат version : Version 1Формат profile : Layer 3Кодек ID : 55Кодек ID/Hint : MP3Длительность : 2h 35mnБитрейт mode : ConstantБитрейт : 128 KbpsКаналы(s) : 2 каналаЧастота : 44.1 KHzРежим сжатия : LossyРазмер потока : 142 MiB (10%)Выравнивание : Split accross interleavesInterleave, Длительность : 26 ms (0.65 video frame)


Трекер:  [ 14-Апр-2015 16:30 ]

  

Скачать .torrent

Размер .torrent файла 13 KB


Размер: 1.32 GB
Хэш (hash) релиза: 3f3f0313d97bdb6acc106b71e9a6bf52647867d4

Торренты, похожие на [VIDEO] 12 скачать торрент

Форум Название Автор Размер S L Добавлен
Редакторы видео ·· Nero Video 12 v12.5.4000 RePack by MKN [2013,Eng\Rus] Galfimbul 6792741765 MB 0 0 1373318744

00:25

9-Июл-13

Редакторы видео ·· Boilsoft Utilities 12.02.2013 (Video Splitter 7.02.2 , Video Joiner 7.02.2 , Video Converter 3.02.8 , Video Repair 2.61 ) RePack by elchupakabra [2013,Eng\Rus] Galfimbul 1547529915 MB 0 0 1373318865

00:27

9-Июл-13

Редакторы видео ·· AnyMP4 Video Enhancement 7.2.12 RePack by вовава 7.2.12 x86 x64 [2017, ENG + RUS] Galfimbul 3660971735 MB 0 0 1503371234

06:07

22-Авг-17

Программы для интернет и сетей ·· Apowersoft Streaming Video Recorder 6.1.9 05/12/2017 x86 [12.05.2017, MULTILANG +RUS] Galfimbul 6620166263 MB 2 0 1496960459

01:20

9-Июн-17

Редакторы видео ·· SolveigMM Video Splitter Business Edition v5.0.1508.12 Final Portable v5.0.1508.12 00 x86 x64 [2015, RUS] Galfimbul 128188416122 MB 0 0 1447623194

00:33

16-Ноя-15

Обучающие видеоматериалы ·· Rock 'N Learn - 12 video collection / Танцуй и учись - 12 фильмов [2005-2010 гг., AVI, ENG, ESP] dnickn 83058681787.74 GB 0 0 1301854312

21:11

3-Апр-11

Видео- Аудио- конверторы ·· VideoSolo Video Converter Ultimate 1.0.12 RePack by вовава x86 x64 [2018, ENG + RUS] nikola120 5806440755 MB 0 0 1516257811

09:43

18-Янв-18

Видео- Аудио- конверторы ·· Aiseesoft Total Video Converter 9.2.12 RePack by вовава [2017, ENG + RUS] Galfimbul 3931626837 MB 0 0 1497755312

06:08

18-Июн-17

Видео- Аудио- конверторы ·· Aiseesoft Video Converter Ultimate 9.2.12 Portable [2017, MULTILANG +RUS] Galfimbul 183633244175 MB 0 0 1497030977

20:56

9-Июн-17

Редакторы видео ·· SolveigMM Video Splitter Business Edition v6.1.1705.12 Final + Portable Official [2017,MlRus] Galfimbul 5865555556 MB 0 0 1494686613

17:43

13-Май-17

Редакторы видео ·· SolveigMM Video Splitter 6.1.1705.12 Business Edition + Portable [2017, MULTILANG +RUS] Galfimbul 5685189054 MB 0 0 1494676316

14:51

13-Май-17

Видео- Аудио- конверторы ·· Tipard HD Video Converter 9.2.12 RePack by вовава x86 x64 [2017, Ru/En] Galfimbul 3707302335 MB 0 0 1493562765

17:32

30-Апр-17

Редакторы видео ·· SolveigMM Video Splitter v3.6.1309.3 Final [2013,MlRus] (DC 06.12.2013) Galfimbul 2324773722 MB 0 0 1463001884

00:24

12-Май-16

Редакторы видео ·· SolveigMM Video Splitter Business Edition v5.0.1508.12 Final + Portable [2015,MlRus] Galfimbul 3466832233 MB 0 0 1447623202

00:33

16-Ноя-15

Видео- Аудио- конверторы ·· WinX HD Video Converter Deluxe v3.12.6 Built 20130315 Final [2013,Eng\Rus] Galfimbul 1633814016 MB 0 0 1373381917

17:58

9-Июл-13

Видео (Фильмы/Клипы) ·· [VIDEO] Чемпионат Испании 2012-13 (16-й тур) Барселона - Атлетико Мадрид [16.12.2012, спорт, футбол, ТК "Футбол", IPTVRip][MP4, 400x] Galfimbul 417616558398 MB 0 0 1356341400

12:30

24-Дек-12

Еще никто не оставлял запись к записи скачать торрент [VIDEO] 12 . Будь первым!

!Обратная связь