Einstein | Chapter 235 | Between Shades of Gray

Скачать через торрент [VIDEO] Новый кулак ярости New Fist Of Fury бесплатно русская версия torrent активатор

Статистика раздачи
Размер:  1.79 GB   |    Зарегистрирован:  3 года 3 месяца   |    .torrent скачан:  37 раз   |   
Раздают:  1  
   
загрузка...
 
Автор Сообщение

Galfimbul

avatar Galfimbul


Новый кулак ярости / New Fist Of Fury / Xin jing wu men [Расширенная, полная версия]

Год выпуска: 1976
Страна: Гонконг, Тайвань
Студия: Lo Wei Motion Picture Co
Жанр: боевик, драма
Продолжительность: 02:00:06
Перевод №1: Профессиональный (двухголосый, закадровый) Видеофильм
Перевод №2: Одноголосый (закадровый) Tai Seng
Оригинальная дорожка: Есть
Cубтитры: Русские (Полные, отключаемые), softsub
Режиссер: Вэй Ло / Wei Lo
Сценаристы: Вэй Ло / Wei Lo, Ли Пан / Lei Pan
Операторы: Чао Юнг Чен / Chao Yung Chen, Чунг Йуан Чен / Chung Yuan Chen, Юнг Шу Чен / Yung Shu Chen
Композитор: Юн-Ю Чен / Yung-Yu Chen
В ролях: Джеки Чан / Jackie Chan (в титрах: Chen Yuen Lung) (A Lung), Минг Чэн Чанг / Ming Cheng Chang, Шен Лин Чанг / Shen Lin Chang, Чао-Юн Чен / Chao Yung Chen, Джен Чен / Jen Chen, Синг Чан / Sing Chen, Сиу Сиу Ченг / Siu Siu Cheng, Кэм Чунг / Kam Cheung и другие .
Премьера (мир): 8 июля 1976
Описание: Сиквел к «Кулаку ярости» с Брюсом Ли начинается там же, где заканчивается оригинальный фильм. Оставшиеся три соратника героя Брюса Ли, убитого в первом фильме, уезжают из Шанхая на Тайвань, чтобы продолжить там свою борьбу с японскими захватчиками.

В это время там появляется новый начальник-японец, большой специалист по боевым искусствам, который решает взять под свою юрисдикцию все школы китайских боевых искусств, что, естественно, не нравится китайцам.

Джеки Чан же здесь играет уличного воришку, которого «волею судеб» заносит в школу героя Хана Ин Чи, куда попадает и троица из Шанхая.

В фильме в эпизодической роли можно увидеть Ло Вэя, изображающего инспектора.

Релиз группы
Качество: HDRip / [url=...4969378]BDRip 720p[/url]
Формат: MP4
Видео кодек: H.264
Аудио кодек: AAC
Видео: 960x432 AR:2.222 1740 kbps, 23.976 fps
Аудио №1: [Russian] 2ch 48 kHz 128 kbps - [DVO] Видеофильм
Аудио №2: [Russian] 2ch 48 kHz 128 kbps - [VO] Tai Seng
Аудио №3: [Chinese] 2ch 48 kHz 128 kbps - [Original]
...last pass...

x264.exe: --pass 2 --bitrate 1740 --preset medium --profile high --level 4.1 --ref 8 --aq-strength 0.7 --deblock -2:-2 --merange 24 --no-chroma-me --direct auto --b-adapt 2 --trellis 2 --no-fast-pskip --no-dct-decimate --psy-rd 1.00:0.15 --subme 9 --me umh --min-keyint 25 --keyint 240 --colorprim bt709 --transfer bt709 --colormatrix bt709 --sar 1:1 --stats "J:\New.Fist.of.Fury.1976.BDRip.720p.log" --output "J:\New.Fist.of.Fury.1976.BDRip.720p.mp4" "J:\Temp\0088.avs"

avs [info]: 960x432p 1:1 @ 2997/125 fps (cfr)
x264 [info]: using SAR=1/1
x264 [info]: using cpu capabilities: MMX2 SSE2Fast SSSE3 SSE4.2 LZCNT
x264 [info]: profile High, level 4.1

x264 [info]: frame I:1218 Avg QP:21.13 size: 47642
x264 [info]: frame P:48144 Avg QP:23.47 size: 17453
x264 [info]: frame B:123412 Avg QP:25.54 size: 5422
x264 [info]: consecutive B-frames: 1.7% 3.6% 16.5% 78.1%
x264 [info]: mb I I16..4: 4.2% 86.5% 9.3%
x264 [info]: mb P I16..4: 0.8% 8.8% 0.9% P16..4: 49.9% 25.2% 12.7% 0.0% 0.0% skip: 1.7%
x264 [info]: mb B I16..4: 0.0% 1.1% 0.2% B16..8: 44.5% 8.9% 1.9% direct: 6.4% skip:37.0% L0:41.0% L1:49.6% BI: 9.3%
x264 [info]: 8x8 transform intra:83.9% inter:67.7%
x264 [info]: direct mvs spatial:98.6% temporal:1.4%
x264 [info]: coded y,uvDC,uvAC intra: 91.7% 71.1% 29.3% inter: 32.0% 26.5% 3.9%
x264 [info]: i16 v,h,dc,p: 40% 23% 16% 21%
x264 [info]: i8 v,h,dc,ddl,ddr,vr,hd,vl,hu: 10% 7% 3% 10% 16% 15% 14% 12% 12%
x264 [info]: i4 v,h,dc,ddl,ddr,vr,hd,vl,hu: 9% 6% 2% 9% 16% 16% 16% 13% 13%
x264 [info]: i8c dc,h,v,p: 38% 24% 21% 16%
x264 [info]: Weighted P-Frames: Y:25.7% UV:3.3%
x264 [info]: ref P L0: 39.3% 13.1% 18.9% 8.0% 6.3% 5.1% 4.9% 2.9% 1.2% 0.1%
x264 [info]: ref B L0: 76.3% 11.9% 4.8% 2.6% 2.0% 1.5% 0.8%
x264 [info]: ref B L1: 95.2% 4.8%
x264 [info]: kb/s:1740.05

x264 [total]: encoded 172774 frames, 11.03 fps, 1740.05 kb/s
GeneralComplete name : J:\Torrents\New.Fist.of.Fury.1976.HDRip.x264.960x.rip by Frost O.S.mp4Format : MPEG-4Format profile : Base MediaCodec ID : isomFile size : 1.79 GiBDuration : 2h 0mnOverall bit rate mode : VariableOverall bit rate : 2 132 KbpsMovie name : New Fist of Fury 1976 HDRip x264 960x rip by Frost O SPerformer : / Джеки Чан / / Jackie ChanGenre : ActionContentType : Short FilmRecorded date : 8 июля 1976Encoded date : UTC 2015-04-14 12:30:28Tagged date : UTC 2015-04-14 12:35:59Writing application : MkvToMp4 version: 0.224 (x64)Cover : YesComment : rip by Frost O.SLongDescription : Сиквел к «Кулаку ярости» с Брюсом Ли начинается там же, где заканчивается оригинальный фильм. Оставшиеся три соратника героя Брюса Ли, убитого в первом фильме, уезжают из Шанхая на Тайвань, чтобы продолжить там свою борьбу с японскими захватчиками. / В это время там появляется новый начальник-японец, большой специалист по боевым искусствам, который решает взять под свою юрисдикцию все школы китайских боевых искусств, что, естественно, не нравится китайцам. / Джеки Чан же здесь играет уличного воришку, которого «волею судеб» заносит в школу героя Хана Ин Чи, куда попадает и троица из Шанхая.ContentRating : ru-movie|16+|375|iTunMOVI : <?xml version="1.0" encoding="UTF-8"?> / <!DOCTYPE plist PUBLIC "-//Apple//DTD PLIST 1.0//EN" "http://www.apple.com/DTDs/PropertyList-1.0.dtd"> / <plist version="1.0"> / <dict> / <key>cast</key> / <array> / <dict> / <key>name</key> / <string>Джеки Чан / Jackie Chan (в титрах: Chen Yuen Lung) (A Lung)</string> / </dict> / <dict> / <key>name</key> / <string>Минг Чэн Чанг / Ming Cheng Chang</string> / </dict> / <dict> / <key>name</key> / <string>Шен Лин Чанг / Shen Lin Chang</string> / </dict> / <dict> / <key>name</key> / <string>Чао-Юн Чен / Chao Yung Chen</string> / </dict> / <dict> / <key>name</key> / <string>Джен Чен / Jen Chen</string> / </dict> / <dict> / <key>name</key> / <string>Синг Чан / Sing Chen</string> / </dict> / <dict> / <key>name</key> / <string>Сиу Сиу Ченг / Siu Siu Cheng</string> / </dict> / <dict> / <key>name</key> / <string>Кэм Чунг / Kam Cheung и другие .</string> / </dict> / </array> / <key>directors</key> / <array> / <dict> / <key>name</key> / <string>Вэй Ло</string> / </dict> / </array> / <key>producers</key> / <array> / <dict> / <key>name</key> / <string>Ли Хва Сю</string> / </dict> / <dict> / <key>name</key> / <string>Вэй Ло</string> / </dict> / <dict> / <key>name</key> / <string>Сан Мин Лу</string> / </dict> / </array> / <key>screenwriters</key> / <array> / <dict> / <key>name</key> / <string>Вэй Ло</string> / </dict> / <dict> / <key>name</key> / <string>Ли Пан</string> / </dict> / </array> / </dict> / </plist>

VideoID : 1Format : AVCFormat/Info : Advanced Video CodecFormat profile : [email protected] settings, CABAC : YesFormat settings, ReFrames : 8 framesCodec ID : avc1Codec ID/Info : Advanced Video CodingDuration : 2h 0mnBit rate : 1 740 KbpsMaximum bit rate : 5 007 KbpsWidth : 960 pixelsHeight : 432 pixelsDisplay aspect ratio : 2.222Frame rate mode : ConstantFrame rate : 23.976 fpsColor space : YUVChroma subsampling : 4:2:0Bit depth : 8 bitsScan type : ProgressiveBits/(Pixel*Frame) : 0.175Stream size : 1.46 GiB (82%)Writing library : x264 core 130 r2273 b3065e6Encoding settings : cabac=1 / ref=8 / deblock=1:-2:-2 / analyse=0x3:0x113 / me=umh / subme=9 / psy=1 / psy_rd=1.00:0.15 / mixed_ref=1 / me_range=24 / chroma_me=0 / trellis=2 / 8x8dct=1 / cqm=0 / deadzone=21,11 / fast_pskip=0 / chroma_qp_offset=-3 / threads=3 / lookahead_threads=1 / sliced_threads=0 / nr=0 / decimate=0 / interlaced=0 / bluray_compat=0 / constrained_intra=0 / bframes=3 / b_pyramid=2 / b_adapt=2 / b_bias=0 / direct=3 / weightb=1 / open_gop=0 / weightp=2 / keyint=240 / keyint_min=25 / scenecut=40 / intra_refresh=0 / rc_lookahead=40 / rc=2pass / mbtree=1 / bitrate=1740 / ratetol=1.0 / qcomp=0.60 / qpmin=0 / qpmax=69 / qpstep=4 / cplxblur=20.0 / qblur=0.5 / ip_ratio=1.40 / aq=1:0.70Language : EnglishEncoded date : UTC 2015-04-14 12:30:28Tagged date : UTC 2015-04-14 12:31:08Color primaries : BT.709Transfer characteristics : BT.709Matrix coefficients : BT.709

Audio #1ID : 2Format : AACFormat/Info : Advanced Audio CodecFormat profile : LCCodec ID : 40Duration : 2h 0mnBit rate mode : VariableBit rate : 128 KbpsMaximum bit rate : 130 KbpsChannel(s) : 2 channelsChannel positions : Front: L RSampling rate : 48.0 KHzCompression mode : LossyStream size : 110 MiB (6%)Title : [DVO] VideofilmLanguage : RussianEncoded date : UTC 2015-04-14 12:31:00Tagged date : UTC 2015-04-14 12:31:08

Audio #2ID : 3Format : AACFormat/Info : Advanced Audio CodecFormat profile : LCCodec ID : 40Duration : 2h 0mnBit rate mode : VariableBit rate : 128 KbpsMaximum bit rate : 131 KbpsChannel(s) : 2 channelsChannel positions : Front: L RSampling rate : 48.0 KHzCompression mode : LossyStream size : 110 MiB (6%)Title : [VO] Tai SengLanguage : RussianEncoded date : UTC 2015-04-14 12:31:03Tagged date : UTC 2015-04-14 12:31:08

Audio #3ID : 4Format : AACFormat/Info : Advanced Audio CodecFormat profile : LCCodec ID : 40Duration : 2h 0mnBit rate mode : VariableBit rate : 128 KbpsMaximum bit rate : 134 KbpsChannel(s) : 2 channelsChannel positions : Front: L RSampling rate : 48.0 KHzCompression mode : LossyStream size : 110 MiB (6%)Title : [Original]Language : ChineseEncoded date : UTC 2015-04-14 12:31:06Tagged date : UTC 2015-04-14 12:31:08


Трекер:  [ 14-Апр-2015 16:00 ]

  

Скачать .torrent

Размер .torrent файла 18 KB


Размер: 1.79 GB
Хэш (hash) релиза: 49b262aba872210f171606012fed68eb038f8250

Торренты, похожие на [VIDEO] Новый кулак ярости New Fist Of Fury скачать торрент

Форум Название Автор Размер S L Добавлен
Видео (Фильмы/Клипы) ·· [VIDEO] Новый кулак ярости / New Fist Of Fury / Xin jing wu men (Вэй Ло / Wei Lo) [1976, боевик, драма, HDRip] [MP4, 480x] [Расширенная, полная версия] DVO Galfimbul 568650005542 MB 0 0 1429017564

16:19

14-Апр-15

Еще никто не оставлял запись к записи скачать торрент [VIDEO] Новый кулак ярости New Fist Of Fury . Будь первым!

!Обратная связь